Ошибка

7-ой гном / Der 7bte Zwerg (Борис Альинович, Boris Aljinovic Harald Siepermann) [2014, мультфильм, DVDRip-AVC]

Ответить на тему
 
Автор Сообщение

BZzz

Пол: Пол:Муж

Стаж: 5 лет 1 месяц

Сообщений: 3647

Россия
Рейтинг

post 18-Окт-2014 10:27 1[+]

[Цитировать] 

7-ой гном / Der 7bte Zwerg




Год выпуска: 2014
Страна: Германия
Жанр: мультфильм
Продолжительность: 01:23:59
Перевод: Профессиональный (дублированный)[лицензия]
Чаптеры: есть

Режиссер: Борис Альинович, Boris Aljinovic Harald Siepermann

В ролях: Борис Альинович (Boris Aljinovic), Элвин Камерон (Elvin Cameron), Нина Хаген (Nina Hagen), Норберт Хейстеркамп (Norbert Heisterkamp), Мирко Нончев (Mirco Nontschew), Ана Сани (Ana Sani), Ральф Шмитц (Ralf Schmitz), Мартин Шнайдер (Martin Schneider)

Описание: В замке Фантабулараса большой переполох: принцесса Роза празднует свой 18-й день рождения. Приняты самые строгие меры безопасности, ведь злобная Колдунья Делламорта, которая прокляла Розу на ее крестинах, не позволит проклятию раствориться в воздухе.Семеро гномов — Умник, Рыжик, Ворчун, Соня, Силач, Бодряк и Бобо — ничего не знают об этом, когда отправляются на праздник в замок, мечтая повеселиться… Бобо, самый маленький гном, случайно запускает тайный механизм в кольце Колдуньи, и принцесса вместе со всеми гостями замерзает. Гномы спасаются в самую последнюю секунду. Теперь, чтобы все исправить, им придется отправиться в опасное путешествие и найти возлюбленного принцессы, похищенного драконом злобной Делламорты.

Сборы в России: $2 058 239



Качество: DVDRip-AVC
Формат: MKV
Видео кодек: AVC
Аудио кодек: AC3
Видео: 720x552@1024x552 (1.855:1), 25.000 fps, High@L4.1, 1 878 Kbps
Аудио #1: AC3, 448 Kbps, 48.0 KHz, 6 ch
General
Complete name : 7-oi.gnom.mkv
Format : Matroska
File size : 1.37 GiB
Duration : 1h 23mn
Overall bit rate : 2 329 Kbps
Movie name : 7-ой гном
Encoded date : UTC 2010-02-22 21:41:31
Writing application : mkvmerge v5.8.0 ('No Sleep / Pillow') built on Nov 13 2012 19:43:22
Writing library : libebml v1.3.0 + libmatroska v1.4.0
Cover : Yes

Video
ID : 1
Format : AVC
Format/Info : Advanced Video Codec
Format profile : High@L4.1
Format settings, CABAC : Yes
Format settings, ReFrames : 3 frames
Muxing mode : Container profile=Unknown@4.1
Codec ID : V_MPEG4/ISO/AVC
Duration : 1h 23mn
Bit rate : 1 878 Kbps
Width : 720 pixels
Height : 552 pixels
Display aspect ratio : 1.855
Frame rate : 25.000 fps
Color space : YUV
Chroma subsampling : 4:2:0
Bit depth : 8 bits
Scan type : Progressive
Bits/(Pixel*Frame) : 0.189
Stream size : 1.08 GiB (79%)
Writing library : x264 core 142 r2431 ac76440
Encoding settings : cabac=1 / ref=4 / deblock=1:-2:-2 / analyse=0x3:0x133 / me=umh / subme=10 / psy=1 / psy_rd=1.00:0.15 / mixed_ref=1 / me_range=32 / chroma_me=1 / trellis=2 / 8x8dct=1 / cqm=0 / deadzone=21,11 / fast_pskip=0 / chroma_qp_offset=-3 / threads=3 / lookahead_threads=1 / sliced_threads=0 / nr=0 / decimate=0 / interlaced=0 / bluray_compat=0 / constrained_intra=0 / bframes=3 / b_pyramid=1 / b_adapt=2 / b_bias=0 / direct=3 / weightb=1 / open_gop=0 / weightp=1 / keyint=250 / keyint_min=25 / scenecut=40 / intra_refresh=0 / rc_lookahead=40 / rc=2pass / mbtree=1 / bitrate=1878 / ratetol=1.0 / qcomp=0.60 / qpmin=0 / qpmax=69 / qpstep=4 / cplxblur=20.0 / qblur=0.5 / vbv_maxrate=62500 / vbv_bufsize=78125 / nal_hrd=none / filler=0 / ip_ratio=1.40 / aq=1:0.80

Audio
ID : 2
Format : AC-3
Format/Info : Audio Coding 3
Mode extension : CM (complete main)
Codec ID : A_AC3
Duration : 1h 23mn
Bit rate mode : Constant
Bit rate : 448 Kbps
Channel(s) : 6 channels
Channel positions : Front: L C R, Side: L R, LFE
Sampling rate : 48.0 KHz
Bit depth : 16 bits
Stream size : 269 MiB (19%)
Language : Russian

Menu
00:00:00.000 : :Chapter 01
00:09:01.920 : :Chapter 02
00:19:04.800 : :Chapter 03
00:28:31.680 : :Chapter 04
00:38:14.400 : :Chapter 05
00:48:10.560 : :Chapter 06
00:59:01.920 : :Chapter 07
01:10:57.600 : :Chapter 08
info [Профиль]  [ЛС] 

post 11-Дек-2014 01:32 (спустя 1 месяц 23 дня) [-]0[+]

Топик был перенесен из форума Новинки 2013-2014 (Rips) в форум Зарубежные полнометражные мультфильмы

BZzz
 
Показать сообщения:    
Ответить на тему

Текущее время: 11-Дек 04:26

Часовой пояс: GMT + 4



Вы не можете начинать темы
Вы не можете отвечать на сообщения
Вы не можете редактировать свои сообщения
Вы не можете удалять свои сообщения
Вы не можете голосовать в опросах
Вы не можете прикреплять файлы к сообщениям
Вы не можете скачивать файлы