Ошибка

До окончания фрилича осталось:


Ярость Бахамута: Поколение / Shingeki no Bahamut: Genesis [TV] [1-3 из 12] [2014] [фентези, приключения] [HDRip] [720p] [Любительский]

Ответить на тему
 
Автор Сообщение

vadimklose

Пол: Пол:Муж

Стаж: 7 лет 6 месяцев

Сообщений: 1511

Великобритания
Рейтинг

post 13-Окт-2014 11:58 3[+]

[Цитировать] 

Ярость Бахамута: Поколение / Shingeki no Bahamut: Genesis
Год выпуска: 2014
Страна: Япония
Жанр: фентези, приключения
Продолжительность: ~ 25 мин.
Режиссер: Сато Кэйити

Перевод: Любительский одноголосый (MetalRus)
Субтитры: нет
Релиз от: Ani-Mania

Описание:
Ребята из MAPPA взяли игру Rage of Bahamut компании Cygames и запилили по ней аниме. Впрочем, судя по трейлеру чего-то вроде Cardfight!! Vanguard можно не опасаться. Что же ожидает любопытного зрителя? А ожидает магический мир Mistarcia, место где сосуществуют люди, боги и демоны. Энное количество лет назад злобный какодемон, пардон, крылатый злыдень пытался разнести мир в щепки, но обломался. Вместо истребления зверька запечатали, а раз запечатали, то... ну сами понимаете, печать-то и снять кто-то может. Короче, ожидается красочное магическое месилово с привлечением колоссальных сил, драконов, големов и прочих характерных персонажей.

Качество: HDRip 720p
Формат: mp4
Видео кодек: AVC
Аудио кодек: AAC
Видео: 1280 x 720 (16:9) at 23.976 fps, High@L3.1, 2 319 Kbps, 0.105 bit/pixel, 8 bit
Аудио#1: 48.0 kHz, AAC, 2 ch, 384 kbps avg
General
Complete name : F:\Anime2\[ZORmaniya] Shingeki no Bahamut Genesis (Metalrus)\[ZORmaniya] Shingeki no Bahamut Genesis - 01 (Metalrus).mp4
Format : MPEG-4
Format profile : Base Media
Codec ID : isom
File size : 464 MiB
Duration : 23mn 59s
Overall bit rate mode : Variable
Overall bit rate : 2 701 Kbps
Encoded date : UTC 2014-10-07 22:26:35
Tagged date : UTC 2014-10-07 22:26:35

Video
ID : 1
Format : AVC
Format/Info : Advanced Video Codec
Format profile : High@L3.1
Format settings, CABAC : Yes
Format settings, ReFrames : 4 frames
Codec ID : avc1
Codec ID/Info : Advanced Video Coding
Duration : 23mn 59s
Bit rate : 2 319 Kbps
Maximum bit rate : 8 136 Kbps
Width : 1 280 pixels
Height : 720 pixels
Display aspect ratio : 16:9
Frame rate mode : Constant
Frame rate : 23.976 fps
Color space : YUV
Chroma subsampling : 4:2:0
Bit depth : 8 bits
Scan type : Progressive
Bits/(Pixel*Frame) : 0.105
Stream size : 398 MiB (86%)
Writing library : x264 core 130 r2273 b3065e6
Encoding settings : cabac=1 / ref=2 / deblock=1:-1:-1 / analyse=0x3:0x113 / me=hex / subme=6 / psy=1 / psy_rd=1.00:0.10 / mixed_ref=1 / me_range=16 / chroma_me=1 / trellis=1 / 8x8dct=1 / cqm=0 / deadzone=21,11 / fast_pskip=1 / chroma_qp_offset=-3 / threads=12 / lookahead_threads=2 / sliced_threads=0 / nr=0 / decimate=1 / interlaced=0 / bluray_compat=0 / constrained_intra=0 / bframes=3 / b_pyramid=2 / b_adapt=1 / b_bias=0 / direct=1 / weightb=1 / open_gop=0 / weightp=1 / keyint=250 / keyint_min=23 / scenecut=40 / intra_refresh=0 / rc_lookahead=30 / rc=crf / mbtree=1 / crf=19.0 / qcomp=0.60 / qpmin=0 / qpmax=69 / qpstep=4 / ip_ratio=1.40 / aq=1:1.00
Encoded date : UTC 2014-10-07 22:26:35
Tagged date : UTC 2014-10-07 22:26:39

Audio
ID : 2
Format : AAC
Format/Info : Advanced Audio Codec
Format profile : LC
Codec ID : 40
Duration : 23mn 59s
Bit rate mode : Variable
Bit rate : 384 Kbps
Maximum bit rate : 476 Kbps
Channel(s) : 2 channels
Channel positions : Front: L R
Sampling rate : 48.0 KHz
Compression mode : Lossy
Stream size : 64.9 MiB (14%)
Encoded date : UTC 2014-10-07 22:26:38
Tagged date : UTC 2014-10-07 22:26:39
info [Профиль]  [ЛС] 

_scsi_

Пол: Пол:Муж

Стаж: 6 лет 8 месяцев

Сообщений: 501

Предупреждений: 1

СССР
Рейтинг

post 13-Окт-2014 16:00 (спустя 4 часа) [-]9[+]

[Цитировать] 

магический мир Mistarcia, люди, боги и демоны...
сиськи есть?
info [Профиль]  [ЛС] 

AstraZak

Пол: Пол:Муж

Стаж: 6 лет 11 месяцев

Сообщений: 187

Предупреждений: 1

Россия
Рейтинг

post 13-Окт-2014 16:32 (спустя 32 минуты) [-]0[+]

[Цитировать] 

По 1-й серии все очень хорошо, прям претендент на вин сезона, и юморок и рисовка и эпик музыка и эпик моменты, все хорошо, сиськи есть чуточку, не путать со всяким трешем аля Блей ад Соул.
info [Профиль]  [ЛС] 

Benzovorona

Пол: Пол:Жен

Стаж: 6 лет 9 месяцев

Сообщений: 161

Россия
Рейтинг

post 13-Окт-2014 18:21 (спустя 1 час 48 минут) [-]4[+]

[Цитировать] 

Повелся на постер

Ладно уж. Заценим.
info [Профиль]  [ЛС] 

kalugass

Стаж: 5 лет 5 месяцев

Сообщений: 9

Япония
Рейтинг

post 13-Окт-2014 19:06 (спустя 45 минут) [-]4[+]

[Цитировать] 

Benzovorona писал(а):

Повелся на постер

Ладно уж. Заценим.
да постер зачетный
info [Профиль]  [ЛС] 

kuca777

Пол: Пол:Муж

Стаж: 3 года 7 месяцев

Сообщений: 7

Россия
Рейтинг

post 13-Окт-2014 21:06 (спустя 2 часа) [-]3[+]

[Цитировать] 

+1 к крутости за постер.

_________________
Главное в зомби не превратиться.
info [Профиль]  [ЛС] 

Pray

Пол: Пол:Муж

Стаж: 5 лет 4 месяца

Сообщений: 883

Предупреждений: 1

Украина
Рейтинг

post 13-Окт-2014 22:10 (спустя 1 час 3 минуты) [-]-13[+]

[Цитировать] 

Сиськи на весь постер kolob_128, а мульт какафония по мне. Не в обиду ребята, не люблю аниме!

_________________
MSI Z77A-G43 / Intel Core i5 3570K 3.4 ГГц / Gigabyte GeForce GTX 770 OC 4 Гб Rev. 2.0 / 8 Гб ОЗУ
Steam
info [Профиль]  [ЛС] 

stascooper

Пол: Пол:Муж

Стаж: 6 лет 2 месяца

Сообщений: 48

Россия
Рейтинг

post 13-Окт-2014 22:29 (спустя 19 минут) [-]1[+]

[Цитировать] 

тема сисек не раскрыта
info [Профиль]  [ЛС] 

Tuuari

Стаж: 7 лет 8 месяцев

Сообщений: 818

Рейтинг

post 13-Окт-2014 23:26 (спустя 57 минут) [-]12[+]

[Цитировать] 

Pray писал(а):

Сиськи на весь постер kolob_128, а мульт какафония по мне. Не в обиду ребята, не люблю аниме!
Смысл заходить в аниме раздел и заявлять, что не любишь аниме, тем более какое-то оценочное суждение писать. "Не читал, но осуждаю"

_________________
Arbeit macht frei
info [Профиль]  [ЛС] 

Okami

Стаж: 6 лет 2 месяца

Сообщений: 1

Рейтинг

post 14-Окт-2014 01:52 (спустя 2 часа 26 минут) [-]5[+]

[Цитировать] 

Улитка Сонная, ради сисек и не в такие дебри заберешься ))
info [Профиль]  [ЛС] 

Maximus_154

Пол: Пол:Муж

Стаж: 3 года 2 месяца

Сообщений: 10

Россия
Рейтинг

post 21-Окт-2014 12:36 (спустя 7 дней) [-]0[+]

[Цитировать] 

следующих серий не будет?

_________________
info [Профиль]  [ЛС] 

vadimklose

Пол: Пол:Муж

Стаж: 7 лет 6 месяцев

Сообщений: 1511

Великобритания
Рейтинг

post 24-Окт-2014 10:06 (спустя 2 дня 21 час) [-]0[+]

[Цитировать] 

Добавлены 2-3

_________________
Не подписался на канал - Мужиком был - Бабой стал
info [Профиль]  [ЛС] 

kAs1m

Стаж: 7 лет 8 месяцев

Сообщений: 1228

Предупреждений: 1

Рейтинг

post 24-Окт-2014 18:43 (спустя 8 часов) [-]1[+]

[Цитировать] 

Рип-офф сорки из dragons crown: https://www.google.ru/search?q=dragon%27s+crown+sor...;ved=0CAYQ_AUoAQ
info [Профиль]  [ЛС] 

TripAndJoy

Пол: Пол:Муж

Стаж: 3 года 7 месяцев

Сообщений: 4

СССР
Рейтинг

post 24-Окт-2014 19:31 (спустя 47 минут) [-]0[+]

[Цитировать] 

Онгоинг значит. Смотреть не буду, а раздачу поддержу
info [Профиль]  [ЛС] 

TAHATOC

Стаж: 7 лет 6 месяцев

Сообщений: 16

Россия
Рейтинг

post 28-Окт-2014 22:04 (спустя 4 дня) [-]0[+]

[Цитировать] 

народ что за группа играет в заставке?
info [Профиль]  [ЛС] 
Показать сообщения:    
Ответить на тему

Текущее время: 10-Дек 01:22

Часовой пояс: GMT + 4



Вы не можете начинать темы
Вы не можете отвечать на сообщения
Вы не можете редактировать свои сообщения
Вы не можете удалять свои сообщения
Вы не можете голосовать в опросах
Вы не можете прикреплять файлы к сообщениям
Вы не можете скачивать файлы