Ошибка

Почтальон Пэт / Postman Pat: The Movie (Майкл Д’Иса-Хоган) [2014, Мультфильм, комедия, семейный, HDRip]

Ответить на тему
 
Автор Сообщение

L

Пол: Пол:Муж

Стаж: 6 лет 7 месяцев

Сообщений: 10804

Украина
Рейтинг

post 30-Сен-2014 08:02 1[+]

[Цитировать] 

Почтальон Пэт/ Postman Pat: The Movie
Год выпуска: 2014
Жанр: Мультфильм, комедия, семейный
Выпущено: Великобритания, США, Classic Media, RGH Entertainment, Rubicon Group Holding
Продолжительность: 01:27:51
Перевод: Дублированный

Режиссер: Майкл Д’Иса-Хоган
В ролях: Джим Бродбент, Джейн Карр, Робин Аткин Даунс, Сьюзэн Дюрден, Грег Эллис, Руперт Гринт, Дэн Хилдебранд, Ронан Китинг, Стивен Мэнгэн, Парминдер К. Награ

О фильме: Сколько нужно почтальонов для спасения мира? Достаточно одного, если он работает в паре с любопытным котом, готовым к любым приключениям.

Качество: HDRip | Сэмпл
Формат: AVI
Видео: XviD, 2025 Кбит/с, 720x384
Аудио: Русский (AC3, 2 ch, 192 Кбит/с)
Общее
Полное имя : D:\Тапкораздачи\Po4taljon.Pet.2014.D.HDRip.avi
Формат : AVI
Формат/Информация : Audio Video Interleave
Размер файла : 1,37 Гбайт
Продолжительность : 1 ч. 27 м.
Общий поток : 2226 Кбит/сек
Программа кодирования : VirtualDubMod 1.5.10.2 (build 2540/release)
Библиотека кодирования : VirtualDubMod build 2540/release

Видео
Идентификатор : 0
Формат : MPEG-4 Visual
Профиль формата : Advanced Simple@L5
Параметр BVOP формата : 2
Параметр QPel формата : Нет
Параметр GMC формата : Без точки перехода
Параметр матрицы формата : Default (MPEG)
Идентификатор кодека : XVID
Идентификатор кодека/Подсказка : XviD
Продолжительность : 1 ч. 27 м.
Битрейт : 2025 Кбит/сек
Ширина : 720 пикселей
Высота : 384 пикселя
Соотношение сторон : 1,85:1
Частота кадров : 23,976 кадра/сек
Цветовое пространство : YUV
Субдискретизация насыщенности : 4:2:0
Битовая глубина : 8 бит
Тип развёртки : Прогрессивная
Метод сжатия : С потерями
Бит/(Пиксели*Кадры) : 0.305
Размер потока : 1,24 Гбайт (91%)
Библиотека кодирования : XviD 1.2.1 (UTC 2008-12-04)

Аудио
Идентификатор : 1
Формат : AC-3
Формат/Информация : Audio Coding 3
Расширение режима : CM (complete main)
Параметр Endianness формата : Big
Идентификатор кодека : 2000
Продолжительность : 1 ч. 27 м.
Вид битрейта : Постоянный
Битрейт : 192 Кбит/сек
Каналы : 2 канала
Расположение каналов : Front: L R
Частота : 48,0 КГц
Битовая глубина : 16 бит
Метод сжатия : С потерями
Размер потока : 121 Мбайт (9%)
Выравнивание : Разделение по промежуткам
Продолжительность промежутка : 42 мс. (1,00 видеокадр)
Время предзагрузки промежутка : 500 мс.
info [Профиль]  [ЛС] 

echo_ra

Пол: Пол:Муж

Стаж: 3 года 10 месяцев

Сообщений: 43

Украина
Рейтинг

post 30-Сен-2014 14:05 (спустя 6 часов) [-]5[+]

[Цитировать] 

          
Простите, но это должно быть здесь.
info [Профиль]  [ЛС] 

GOODWIN93

Пол: Пол:Муж

Стаж: 6 лет 8 месяцев

Сообщений: 108

Россия
Рейтинг

post 30-Сен-2014 16:08 (спустя 2 часа 3 минуты) [-]-3[+]

[Цитировать] 

del
info [Профиль]  [ЛС] 

DeusNeko

Пол: Пол:Муж

Стаж: 7 лет 2 месяца

Сообщений: 1381

Предупреждений: 1

Россия
Рейтинг

post 30-Сен-2014 18:47 (спустя 2 часа 39 минут) [-]0[+]

[Цитировать] 

echo_ra писал(а):

Простите, но это должно быть здесь.
Нет, вот это.
https://www.youtube.com/watch?v=_QTb1cVzO_g

_________________
Matrix Mini-I Pro -> Questyle CMA800R -> Sennheiser HD 280/PSB M4U 1/Beyerdynamic DT 770 Pro/Beyerdynamic T90/HiFiMAN HE-400
info [Профиль]  [ЛС] 

dotachin

Стаж: 6 лет 4 месяца

Сообщений: 297

Рейтинг

post 01-Окт-2014 11:19 (спустя 16 часов) [-]1[+]

[Цитировать] 

Почтальон Пэтчкин
info [Профиль]  [ЛС] 

2x2x

Пол: Пол:Муж

Стаж: 2 года 11 месяцев

Сообщений: 6

Россия
Рейтинг

post 01-Окт-2014 16:05 (спустя 4 часа) [-]4[+]

[Цитировать] 

Пэт почтальон умер в драке за район :С

_________________
Intel "Core i7-4790K"(L4)
HyperX FURY Memory Blue - 16GB
Seagate Barracuda 7200 - 250\1.5 GB
Hitachi Travelstar 7K1000 - 1GB
ASUS "MAXIMUS VII RANGER"
Gigabyte GeForce 780 TI WindForce GHZ 3 GB
Chieftec APS-1000C - 1000W
+ маленькая термоядерная электростанция
info [Профиль]  [ЛС] 

Myrage

Пол: Пол:Муж

Стаж: 7 лет 8 месяцев

Сообщений: 8

Рейтинг

post 06-Окт-2014 16:11 (спустя 5 дней) [-]0[+]

[Цитировать] 

2x2x писал(а):

Пэт почтальон умер в драке за район :С
Без спойлеров, пожалуйста ag
info [Профиль]  [ЛС] 

post 11-Дек-2014 01:32 (спустя 2 месяца 4 дня) [-]0[+]

Топик был перенесен из форума Новинки 2013-2014 (Rips) в форум Зарубежные полнометражные мультфильмы

BZzz
 
Показать сообщения:    
Ответить на тему

Текущее время: 06-Дек 16:11

Часовой пояс: GMT + 4



Вы не можете начинать темы
Вы не можете отвечать на сообщения
Вы не можете редактировать свои сообщения
Вы не можете удалять свои сообщения
Вы не можете голосовать в опросах
Вы не можете прикреплять файлы к сообщениям
Вы не можете скачивать файлы