Ошибка

До окончания фрилича осталось:


Гpань бyдущeго / Еdgе of Tоmоrrоw (Дaг Лaймaн / Dоug Limаn) [2014, Фантастика, Боевик, BDrip-AVC, 3D] [Вертикальная анаморфная стереопара]

Ответить на тему
 
Автор Сообщение

Dr.Zero

Пол: Пол:Муж

Стаж: 7 лет 5 месяцев

Сообщений: 198

Украина
Рейтинг

post 27-Сен-2014 18:29 0[+]

[Цитировать] 

pic="http://s020.radikal.ru/i706/1409/d7/80e8e3761102.png"
Грань будущего в 3Д / Edge of Tomorrow 3D


Год выпуска: 2014
Страна: США, Австралия (Warner Bros. Pictures, Village Roadshow Pictures)
Жанр: Фантастика, Боевик
Продолжительность: 01:53:29
Перевод: Профессиональный дублированный + Одноголосый закадровый (Д. Есарев)
Язык субтитров: Русский, Украинский, Английский
Режиссер:
  • Даг Лайман / Doug Liman

Роли исполняли (дублировали):


Cage - Том Круз (Всеволод Кузнецов)
Rita - Эмили Блант (Мария Фортунатова)
General Brigham - Брендан Глисон (Алексей Рязанцев)
Master Sergeant Farell - Билл Пэкстон (Андрей Градов)
Skinner - Джонас Армстронг (Борис Шувалов)
Kimmel - Тони Вэй (Сергей Чихачев)
Griff - Кик Гарри (Илья Исаев)
Ford - Франц Драмех
Kuntz - Драгомир Мрсич
Nance - Шарлотта Райли
Takeda - Масаёси Ханеда
Cruel Sergeant - Теренс Мэйнард
Dr. Carter - Ноа Тейлор (Андрей Казанцев)
Karen Lord - Лара Пулвер
Julie - Мадлен Манток
Infirmary Nurse - Ассли Зандри
Secretary - Iris - Бет Годдар

В недалёком будущем раса инопланетян вторгается на Землю. Никакая армия в мире не может противостоять им. Майор Уильям Кейдж умирает в бою, но случается невозможное — он оказывается во временной петле. Раз за разом он попадает в один и тот же бой, сражается и умирает… снова и снова. И каждое повторяющееся сражение приближает его к разгадке того, как победить врага.
|
Автор рипа Ash61
Премьера: 28 мая 2014 (5 июня 2014)
Релиз на Blu-Ray (DVD) (Россия): 2 октября 2014
Бюджет: $178 000 000
Кассовые сборы: $369 206 256
Топ250 Кинопоиска: 163 место (20.09.2014)
General
Unique ID : 205291282138221420288524469703429941144 (0x9A71A9AA95AA6C67BF08E759BC656798)
Complete name : E:\EdgeOfTomorrow(2014)3D-halfOU(Ash61)\EdgeOfTomorrow(2014)3D-halfOU(Ash61).mkv
Format : Matroska
Format version : Version 2
File size : 9.98 GiB
Duration : 1h 53mn
Overall bit rate : 12.6 Mbps
Movie name : Грань будущего / Edge of Tomorrow (2014) 3D
Encoded date : UTC 2014-09-26 21:42:58
Writing application : mkvmerge v5.8.0 ('No Sleep / Pillow') built on Sep 2 2012 15:37:04
Writing library : libebml v1.2.3 + libmatroska v1.3.0

Video
ID : 1
Format : AVC
Format/Info : Advanced Video Codec
Format profile : High@L4.1
Format settings, CABAC : Yes
Format settings, ReFrames : 4 frames
Codec ID : V_MPEG4/ISO/AVC
Duration : 1h 53mn
Bit rate : 9 779 Kbps
Width : 1 920 pixels
Height : 1 080 pixels
Display aspect ratio : 16:9
Frame rate mode : Constant
Frame rate : 23.976 fps
Color space : YUV
Chroma subsampling : 4:2:0
Bit depth : 8 bits
Scan type : Progressive
Bits/(Pixel*Frame) : 0.197
Stream size : 7.75 GiB (78%)
Title : BDRip by Ash61
Writing library : x264 core 138 r2358 9e941d1
Encoding settings : cabac=1 / ref=4 / deblock=1:-3:-3 / analyse=0x3:0x113 / me=umh / subme=10 / psy=1 / psy_rd=1.00:0.15 / mixed_ref=1 / me_range=32 / chroma_me=1 / trellis=2 / 8x8dct=1 / cqm=0 / deadzone=21,11 / fast_pskip=1 / chroma_qp_offset=-3 / threads=12 / lookahead_threads=3 / sliced_threads=0 / nr=0 / decimate=1 / interlaced=0 / bluray_compat=0 / constrained_intra=0 / bframes=10 / b_pyramid=2 / b_adapt=2 / b_bias=0 / direct=3 / weightb=1 / open_gop=0 / weightp=2 / keyint=250 / keyint_min=23 / scenecut=40 / intra_refresh=0 / rc_lookahead=60 / rc=crf / mbtree=1 / crf=17.5 / qcomp=0.70 / qpmin=0 / qpmax=69 / qpstep=4 / vbv_maxrate=40000 / vbv_bufsize=30000 / crf_max=0.0 / nal_hrd=none / frame-packing=4 / ip_ratio=1.40 / aq=1:0.70
Language : English
Default : Yes
Forced : No

Audio #1
ID : 2
Format : AC-3
Format/Info : Audio Coding 3
Mode extension : CM (complete main)
Format settings, Endianness : Big
Codec ID : A_AC3
Duration : 1h 53mn
Bit rate mode : Constant
Bit rate : 640 Kbps
Channel(s) : 6 channels
Channel positions : Front: L C R, Side: L R, LFE
Sampling rate : 48.0 KHz
Bit depth : 16 bits
Compression mode : Lossy
Stream size : 520 MiB (5%)
Title : Дубляж - BD CEE
Language : Russian
Default : Yes
Forced : No

Audio #2
ID : 3
Format : AC-3
Format/Info : Audio Coding 3
Mode extension : CM (complete main)
Format settings, Endianness : Big
Codec ID : A_AC3
Duration : 1h 53mn
Bit rate mode : Constant
Bit rate : 640 Kbps
Channel(s) : 6 channels
Channel positions : Front: L C R, Side: L R, LFE
Sampling rate : 48.0 KHz
Bit depth : 16 bits
Compression mode : Lossy
Stream size : 520 MiB (5%)
Title : Одноголосый закадровый - Д. Есарев
Language : Russian
Default : No
Forced : No

Audio #3
ID : 4
Format : AC-3
Format/Info : Audio Coding 3
Mode extension : CM (complete main)
Format settings, Endianness : Big
Codec ID : A_AC3
Duration : 1h 53mn
Bit rate mode : Constant
Bit rate : 640 Kbps
Channel(s) : 6 channels
Channel positions : Front: L C R, Side: L R, LFE
Sampling rate : 48.0 KHz
Bit depth : 16 bits
Compression mode : Lossy
Stream size : 520 MiB (5%)
Title : Дубляж - BD CEE
Language : Ukrainian
Default : No
Forced : No

Audio #4
ID : 5
Format : AC-3
Format/Info : Audio Coding 3
Mode extension : CM (complete main)
Format settings, Endianness : Big
Codec ID : A_AC3
Duration : 1h 53mn
Bit rate mode : Constant
Bit rate : 640 Kbps
Channel(s) : 6 channels
Channel positions : Front: L C R, Side: L R, LFE
Sampling rate : 48.0 KHz
Bit depth : 16 bits
Compression mode : Lossy
Stream size : 520 MiB (5%)
Title : Original - BD 3D
Language : English
Default : No
Forced : No

Text #1
ID : 6
Format : UTF-8
Codec ID : S_TEXT/UTF8
Codec ID/Info : UTF-8 Plain Text
Title : Форсированные
Language : Russian
Default : Yes
Forced : No

Text #2
ID : 7
Format : UTF-8
Codec ID : S_TEXT/UTF8
Codec ID/Info : UTF-8 Plain Text
Title : Полные
Language : Russian
Default : No
Forced : No

Text #3
ID : 8
Format : UTF-8
Codec ID : S_TEXT/UTF8
Codec ID/Info : UTF-8 Plain Text
Title : Форсированные
Language : Ukrainian
Default : No
Forced : No

Text #4
ID : 9
Format : UTF-8
Codec ID : S_TEXT/UTF8
Codec ID/Info : UTF-8 Plain Text
Title : Полные
Language : Ukrainian
Default : No
Forced : No

Text #5
ID : 10
Format : UTF-8
Codec ID : S_TEXT/UTF8
Codec ID/Info : UTF-8 Plain Text
Title : Full
Language : English
Default : No
Forced : No

Text #6
ID : 11
Format : UTF-8
Codec ID : S_TEXT/UTF8
Codec ID/Info : UTF-8 Plain Text
Title : SDH
Language : English
Default : No
Forced : No

Text #7
ID : 12
Format : UTF-8
Codec ID : S_TEXT/UTF8
Codec ID/Info : UTF-8 Plain Text
Title : SDH-Colored
Language : English
Default : No
Forced : No

Menu
00:00:00.000 : :1
00:10:28.169 : :2
00:17:39.100 : :3
00:24:50.197 : :4
00:35:57.947 : :5
00:46:27.284 : :6
00:54:34.771 : :7
01:04:59.562 : :8
01:12:53.077 : :9
01:23:08.901 : :10
01:32:34.132 : :11
01:42:53.584 : :12
01:45:46.215 : :13

Качество: BDRip
Формат: MKV
Формат 3D: Half OverUnder / Вертикальная анаморфная стереопара
Видео кодек: H.264
Аудио кодек: AC3
Видео: AVC / 23,976 fps / 1920х1080p / 9.8 Mbps
Аудио:
#1 - Русский / AC3 / 48 KHz / 5.1 ch / 640 Kbps (Дубляж - BD CEE)
#2 - Русский / AC3 / 48 KHz / 5.1 ch / 640 Kbps (AVO - Д. Есарев)
#3 - Украинский / AC3 / 48 KHz / 5.1 ch / 640 Kbps (Дубляж - BD CEE)
#4 - Английский / AC3 / 48 KHz / 5.1 ch / 640 Kbps (Original - BD 3D)
Субтитры (SRT):
Вшитые (softsub):
#1 - Русские Форсированные (включены по умолчанию)
#2 - Русские Полные
#3 - Украинские Форсированные
#4 - Украинские Полные
#5 - English Full
#6 - English SDH
#7 - English SDH-Colored
Внешние (UTF-8):
#1 - Русские Форсированные (включены по умолчанию)
#2 - Украинские Форсированные

info [Профиль]  [ЛС] 

L

Пол: Пол:Муж

Стаж: 6 лет 8 месяцев

Сообщений: 10838

Украина
Рейтинг

post 27-Сен-2014 23:14 (спустя 4 часа) [-]1[+]

[Цитировать] 

Неправильно.

Цитата:

Гpань бyдущeго в 3Д / Еdgе of Tоmоrrоw 3D (Дaг Лaймaн / Dоug Limаn) [2014, Фантастика, Боевик, BDrip-AVC, 3D] [Вертикальная анаморфная стереопара]
Правильно

Цитата:

Гpань бyдущeго / Еdgе of Tоmоrrоw (Дaг Лaймaн / Dоug Limаn) [2014, Фантастика, Боевик, BDrip-AVC, 3D] [Вертикальная анаморфная стереопара]

_________________
info [Профиль]  [ЛС] 

dubins

Стаж: 2 года 5 месяцев

Сообщений: 3

Норфолк
Рейтинг

post 28-Сен-2014 00:50 (спустя 1 час 35 минут) [-]0[+]

[Цитировать] 

Крутяк!
info [Профиль]  [ЛС] 

Satan_de_kumar

Пол: Пол:Муж

Стаж: 7 лет 1 месяц

Сообщений: 16

Россия
Рейтинг

post 28-Сен-2014 15:43 (спустя 14 часов) [-]0[+]

[Цитировать] 

Слышал были проблемы с 3D, что на счет этого релиза?
info [Профиль]  [ЛС] 

Dr.Zero

Пол: Пол:Муж

Стаж: 7 лет 5 месяцев

Сообщений: 198

Украина
Рейтинг

post 28-Сен-2014 16:47 (спустя 1 час 4 минуты) [-]0[+]

[Цитировать] 

Satan_de_kumar писал(а):

Слышал были проблемы с 3D, что на счет этого релиза?
какого рода проблемы? Вчера посмотрел, всё нормально, никаких проблем не заметил

_________________
info [Профиль]  [ЛС] 

dubins

Стаж: 2 года 5 месяцев

Сообщений: 3

Норфолк
Рейтинг

post 28-Сен-2014 18:06 (спустя 1 час 18 минут) [-]0[+]

[Цитировать] 

Satan_de_kumar писал(а):

Слышал были проблемы с 3D, что на счет этого релиза?
на изичах вчера посмотрел, все нормально
info [Профиль]  [ЛС] 

post 08-Ноя-2014 11:30 (спустя 1 месяц 9 дней) [-]0[+]

Топик был перенесен из форума 3D Новинки в форум Новинки (3D)

L
 

post 18-Ноя-2014 17:02 (спустя 1 месяц 19 дней) [-]0[+]

Топик был перенесен из форума Новинки (3D) в форум 3D

BZzz
 
Показать сообщения:    
Ответить на тему

Текущее время: 10-Дек 11:04

Часовой пояс: GMT + 4



Вы не можете начинать темы
Вы не можете отвечать на сообщения
Вы не можете редактировать свои сообщения
Вы не можете удалять свои сообщения
Вы не можете голосовать в опросах
Вы не можете прикреплять файлы к сообщениям
Вы не можете скачивать файлы