Ошибка

Город грехов 2: Женщина, ради которой стоит убивать / Sin City: A Dame to Kill For (Роберт Родригес, Фрэнк Миллер) [2014 г., триллер, криминал, BDRemux 1080p]

Ответить на тему
 
Автор Сообщение

Basketballman

Пол: Пол:Муж

Стаж: 7 лет 1 месяц

Сообщений: 280

Россия
Рейтинг

post 27-Сен-2014 10:21 2[+]

[Цитировать] 

Город грехов 2: Женщина, ради которой стоит убивать / Sin City: A Dame to Kill For

Год выпуска: 2014
Страна: США, Россия
Жанр: триллер, криминал
Продолжительность: 01:42:46
Перевод: профессиональный (полное дублирование) [лицензия]
Субтитры: нет
Режиссер:
  • Роберт Родригес, Фрэнк Миллер
В ролях:
  • Ева Грин, Микки Рурк, Джош Бролин, Джессика Альба, Джозеф Гордон-Левитт, Розарио Доусон, Пауэрс Бут, Деннис Хейсбёрт, Джейми Чунг, Брюс Уиллис

Описание: В темных переулках Города Грехов Дуайт планирует жестоко отомстить женщине по имени Ава Лорд, которая его предала, в то время как Нэнси пытается смириться со смертью детектива Хартигана.


Качество: BDRemux 1080p
Формат: MKV
Видео кодек: MPEG-4
Аудио кодек: AC3, DTS-HD
Видео: 1920x1080, 24.000 fps, 18.0 Mбит/с
Аудио 1: Russian: AC3, 6 ch, 640 Kbps
Аудио 2: Russian: DTS-HD MA, 6 ch, 1510 Kbps

Sample
General
Unique ID : 196415698616420791330927643498145740257 (0x93C4499CF671D20EB1D8EF644C7575E1)
Complete name : D:\Кино\Sin City - A Dame to Kill For BDRemux.mkv
Format : Matroska
Format version : Version 2
File size : 14.5 GiB
Duration : 1h 42mn
Overall bit rate mode : Variable
Overall bit rate : 20.1 Mbps
Movie name : Город грехов 2.2014.Сборка: ollan
Encoded date : UTC 2014-09-26 17:56:16
Writing application : mkvmerge v5.6.0 ('Kenya Kane') built on May 27 2012 16:44:04
Writing library : libebml v1.2.3 + libmatroska v1.3.0

Video
ID : 1
Format : AVC
Format/Info : Advanced Video Codec
Format profile : High@L4.1
Format settings, CABAC : Yes
Format settings, ReFrames : 4 frames
Format settings, GOP : M=3, N=24
Codec ID : V_MPEG4/ISO/AVC
Duration : 1h 42mn
Bit rate mode : Variable
Bit rate : 17.6 Mbps
Maximum bit rate : 34.0 Mbps
Width : 1 920 pixels
Height : 1 080 pixels
Display aspect ratio : 16:9
Frame rate mode : Constant
Frame rate : 24.000 fps
Standard : NTSC
Color space : YUV
Chroma subsampling : 4:2:0
Bit depth : 8 bits
Scan type : Progressive
Bits/(Pixel*Frame) : 0.354
Stream size : 12.6 GiB (87%)
Language : English
Default : Yes
Forced : No
Color primaries : BT.709
Transfer characteristics : BT.709
Matrix coefficients : BT.709

Audio #1
ID : 2
Format : AC-3
Format/Info : Audio Coding 3
Mode extension : CM (complete main)
Format settings, Endianness : Big
Codec ID : A_AC3
Duration : 1h 42mn
Bit rate mode : Constant
Bit rate : 640 Kbps
Channel count : 6 channels
Channel positions : Front: L C R, Side: L R, LFE
Sampling rate : 48.0 KHz
Bit depth : 16 bits
Compression mode : Lossy
Stream size : 470 MiB (3%)
Title : Дублированный
Language : Russian
Default : Yes
Forced : No

Audio #2
ID : 3
Format : DTS
Format/Info : Digital Theater Systems
Mode : 16
Format settings, Endianness : Big
Codec ID : A_DTS
Duration : 1h 42mn
Bit rate mode : Constant
Bit rate : 1 510 Kbps
Channel count : 6 channels
Channel positions : Front: L C R, Side: L R, LFE
Sampling rate : 48.0 KHz
Bit depth : 24 bits
Compression mode : Lossy
Stream size : 1.08 GiB (7%)
Title : Дублированный
Language : Russian
Default : No
Forced : No

Menu
00:00:00.000 : en:Chapter 01
00:07:48.875 : en:Chapter 02
00:17:00.458 : en:Chapter 03
00:21:23.750 : en:Chapter 04
00:27:32.708 : en:Chapter 05
00:35:16.416 : en:Chapter 06
00:40:44.416 : en:Chapter 07
00:48:09.458 : en:Chapter 08
00:55:41.375 : en:Chapter 09
01:07:46.125 : en:Chapter 10
01:17:27.791 : en:Chapter 11
01:28:03.333 : en:Chapter 12
01:42:45.958 : en:Chapter 13
info [Профиль]  [ЛС] 

loverHate

Пол: Пол:Муж

Стаж: 5 лет 5 месяцев

Сообщений: 80

Россия
Рейтинг

post 27-Сен-2014 13:38 (спустя 3 часа) [-]0[+]

[Цитировать] 

Субтитры будут?
info [Профиль]  [ЛС] 

Basketballman

Пол: Пол:Муж

Стаж: 7 лет 1 месяц

Сообщений: 280

Россия
Рейтинг

post 27-Сен-2014 16:33 (спустя 2 часа 55 минут) [-]0[+]

[Цитировать] 

Да, попозже сделаю.

loverHate писал(а):

Субтитры будут?

_________________
info [Профиль]  [ЛС] 

post 11-Дек-2014 00:56 (спустя 2 месяца 13 дней) [-]0[+]

Топик был перенесен из форума Новинки 2013-2014 (Web-DL, DVD, HD DVD, Blu-ray, HD Rips) в форум Зарубежное кино | HD DVD и Blu-ray

BZzz
 
Показать сообщения:    
Ответить на тему

Текущее время: 08-Дек 04:15

Часовой пояс: GMT + 4



Вы не можете начинать темы
Вы не можете отвечать на сообщения
Вы не можете редактировать свои сообщения
Вы не можете удалять свои сообщения
Вы не можете голосовать в опросах
Вы не можете прикреплять файлы к сообщениям
Вы не можете скачивать файлы