Ошибка

До окончания фрилича осталось:


Барбоскины (Екатерина Салабай, Юлия Волкоморова) (158 серий) [2011, 2012, 2014, 2015 г., Мультсериал, Анимация, Детский, DVDRip, SATRip, WeBRip]

Ответить на тему
 
Автор Сообщение

Syrax

Пол: Пол:Муж

Стаж: 7 лет 8 месяцев

Сообщений: 542

Россия
Рейтинг

post 03-Сен-2014 17:49 0[+]

[Цитировать] 

Барбоскины

Год выпуска: 2011, 2012, 2014, 2015
Страна: Россия
Жанр: Мультсериал, Анимация, Детский
Продолжительность: 158 х ~ 00:05:00
Перевод: Оригинал
Язык субтитров: Отсутствуют

Режиссер:
  • Екатерина Салабай, Юлия Волкоморова


В ролях:
  • Елена Шульман, Ксения Бржезовская, Олег Куликович, Михаил Черняк, Екатерина Гороховская, Мария Цветкова.


Описание:
Анимационный сериал "Барбоскины", который сняли мультипликаторы России, вышел на экраны в 2011 году. В вечерней, любимой многими передаче для детей "Спокойной ночи, малыши" была показана первая серия мультфильма, который сразу же полюбился ребятам. Главные герои в сериале - семейство собак. Мультсериал полностью отобразил сегодняшнюю действительность, ведь собачья семья живет со всеми имеющими у людей удобствами, техническими новинками и ежедневными радостями и проблемами. На примере веселых и неунывающих главных героев малыши наблюдают трудности и проблемы, возникающие при общении со сверстниками и взрослыми, учатся у них с улыбкой и юмором решать конфликтные ситуации. Это необычайно добрый, забавный и поучительный мультипликационный сериал. Ведь как интересно детям смотреть мультик и получать представление о нашем мире и учиться поступать правильно в каждой отдельной ситуации. В каждой серии мультфильма "Барбоскины" рассказывается о веселом собачьем семействе, живущем в современном мире. Глава семейства не расстается ни на минуту с ноутбуком, мама все время мечтает о сцене, а у каждого из детей свой характер, они так не похожи друг на друга. Лиза, маленькая кривляка, очень хочет стать такой как Жанна Киска. Ее брат Дружок видит себя в качестве будущей футбольной звезды, Роза - жуткая модница и белокурая красавица, Малыш - любимец всей семьи. А Ботанику, чтобы быть счастливым, надо стать лауреатом Нобелевской премии по физике.
001. Первое место
002. Развитие таланта
003. Межгалактическое сообщество
004. Опять двойка
005. Кто красивее
006. Во всем виноват зайка
007. Незаменимый дружок
008. Суперпапа
009. Рыжая
010. Пчелка
011. Перевоспитатели
012. Миротворец
013. Самый лучший
014. Тест на прочность
015. Ку-ка-ре-ку
016. Нобелевская премия
017. Держи себя в руках
018. Лучший подарок
019. Шнурок
020. Настоящий парень
021. Игры разума
022. Гончий Пёс
023. Спокойной ночи!
024. Шито-крыто
025. Вечные ценности
026. Сладкий закон
027. Атака клонов
028. Право голоса
029. Заместитель джинна
030. Побочный эффект
031. Шкатулка с секретом
032. Триумф силы воли
033. Звезда
034. Ни капельки не страшно
035. Матч
036. Колыбельная для Дружка
037. Ночь независимости
038. Пульт
039. Совсем как Жанна Киска
040. Конфетка правды
041. Улыбка фортуны
042. Безотказный
043. Сама невинность
044. Квартирный вопрос
045. Всё за карточку
046. Фото на память
047. Театр
048. По-взрослому
049. Мнение окружающих
050. Сальмаганди
051. Принц
052. Пропеллер
053. Опыт общения
054. Розыгрыш
055. Вознаграждение
056. Военная тайна
057. Срочный ремонт
058. Как стать Львом Яшей
059. Зелёный Гоблин
060. Двойной Дружок
061. Потомки скажут спасибо
062. Контакт
063. На благо науки
064. Ремонт
065. Тайное общество волшебников
066. Игровая приставка
067. Ученик чародея
068. Чемпион
069. Крокодильи слёзы
070. Второй шанс
071. Чёрная суббота
072. Дача
073. По закону
074. Поединок
075. Верное средство
076. Домовой
077. Ночной сеанс
078. Рекорд Пекинеса
079. Скрепколёт
080. Большой
081. Укрощение строптивой
082. Практическая магия
083. Игромания
084. Фейерверк
085. Дедушка хочет на море
086. Туфли
087. Прогулка
088. Важное событие
089. Дворовая история
090. Герой в блестящих доспехах
091. Одиночка
092. Пицца
093. Шпинат, шоколад и условный рефлекс
094. Физическая подготовка
095. Морской бой
096. Дуэт сестёр Барбоскиных
097. Тайный поклонник
098. Раз шпаргалка, два шпаргалка...
099. Неоценимая услуга
100. Клад
101. Творческий поиск
102. Самый лучший дед
103. Конкурс приколов
104. В эфире - новости!
105. Бум-бум, шака-така!
106. Любимый брат
107. Спорное искусство
108. Космический шлем
109. Фальшивый вирус
110. Острый сюжет
111. Бал
112. Симулянт
113. Элементарная физика
114. Пчёлоптицепёс
115. Необычная ночь
116. Семейный секрет
117. Небольшая хитрость
118. Кулинарный шпионаж
119. Саблезубая мышь
120. Морозная пластинка
121. Деду Морозу до востребования
122. Серьёзная подготовка
123. Снежный Пёс
124. Аномалия
125. Сила трения
126. Закаляйся
127. Фигурист
128. Весомый вклад
129. Глобальное потепление
130. Маскировка
131. Вперед в прошлое
132. 33 Ген
133. Достоверные эмоции
134. Популярная психология
135. День уступок
136. Аленький Цветочек
137. Билет на юг
138. Письмо
139. Сценическая речь
140. Как в кино
141. Пятёрка по физкультуре
142. Воздухоплаватель
143. Лучший день
144. Прирожденный лидер
145. Самый честный город
146. Спасибо, Тимоха
147. Удача на завтрак
148. Спасение Земли
149. Мысленное излучение
150. Винтики-шпунтики
151. Романс
152. Пиастры
153. Чудес не бывает
154. Проявить смелость
155. Перезагрузка
156. Красота требует жертв
157. Амнезия
158. Здравствуй, Дедушка Мороз
Качество: DVDRip, SATRip, WeBRip
Формат: AVI
Видео кодек: XviD
Аудио кодек: AC3
Видео DVDRip: XviD, 2208 Кбит/с, 720х544
Видео SATRip: XviD, 2287 Кбит/с, 720х544
Видео WEBRip: XviD, 2015 Кбит/с, 720х400

Аудио: AC3, 2 ch, 192 Кбит/с, 48.0 KHz

DVDRip 1-90 , SATRip 91-100,103-109,111-114,129,138-142, WEBRip 101-102,110,115-128, 130-137, 143-158

Внимание! Из всех серий, кроме первой, я вырезал вступление и финальные титры, для более комфортного просмотра.
d:\_Backup\Films\Барбоскины\010. Пчелка.2011.XviD.DVDRip.avi
General
Complete name : d:\_Backup\Films\Барбоскины\010. Пчелка.2011.XviD.DVDRip.avi
Format : AVI
Format/Info : Audio Video Interleave
File size : 78.4 MiB
Duration : 4mn 33s
Overall bit rate : 2 410 Kbps
Writing application : VirtualDubMod 1.5.10.3 | www.virtualdub-fr.org || (build 2550/release)
Writing library : VirtualDub build 32842/release
Video #0
ID : 0
Format : MPEG-4 Visual
Format profile : Advanced Simple@L5
Format settings, BVOP : 2
Format settings, QPel : No
Format settings, GMC : No warppoints
Format settings, Matrix : Default (H.263)
Codec ID : XVID
Codec ID/Hint : XviD
Duration : 4mn 33s
Bit rate : 2 208 Kbps
Width : 720 pixels
Height : 544 pixels
Display aspect ratio : 4:3
Frame rate : 25.000 fps
Color space : YUV
Chroma subsampling : 4:2:0
Bit depth : 8 bits
Scan type : Progressive
Compression mode : Lossy
Bits/(Pixel*Frame) : 0.225
Stream size : 71.9 MiB (92%)
Writing library : XviD 1.2.1 (UTC 2008-12-04)
Audio #1
ID : 1
Format : AC-3
Format/Info : Audio Coding 3
Mode extension : CM (complete main)
Format settings, Endianness : Big
Codec ID : 2000
Duration : 4mn 33s
Bit rate mode : Constant
Bit rate : 192 Kbps
Channel(s) : 2 channels
Channel positions : Front: L R
Sampling rate : 48.0 KHz
Bit depth : 16 bits
Compression mode : Lossy
Delay relative to video : 8ms
Stream size : 6.25 MiB (8%)
Alignment : Split accross interleaves
Interleave, duration : 40 ms (1.00 video frame)
Interleave, preload duration : 500 ms
d:\_Backup\Films\Барбоскины\092. Пицца.2012.XviD.SATRip.avi
General
Complete name : d:\_Backup\Films\Барбоскины\092. Пицца.2012.XviD.SATRip.avi
Format : AVI
Format/Info : Audio Video Interleave
File size : 82.0 MiB
Duration : 4mn 36s
Overall bit rate : 2 490 Kbps
Writing application : Lavf55.12.100
Writing library : VirtualDub build 32842/release
Video #0
ID : 0
Format : MPEG-4 Visual
Format profile : Advanced Simple@L5
Format settings, BVOP : 2
Format settings, QPel : No
Format settings, GMC : No warppoints
Format settings, Matrix : Default (H.263)
Codec ID : XVID
Codec ID/Hint : XviD
Duration : 4mn 36s
Bit rate : 2 288 Kbps
Width : 720 pixels
Height : 544 pixels
Display aspect ratio : 4:3
Frame rate : 25.000 fps
Color space : YUV
Chroma subsampling : 4:2:0
Bit depth : 8 bits
Scan type : Progressive
Compression mode : Lossy
Bits/(Pixel*Frame) : 0.234
Stream size : 75.4 MiB (92%)
Writing library : XviD 1.2.1 (UTC 2008-12-04)
Audio #1
ID : 1
Format : AC-3
Format/Info : Audio Coding 3
Mode extension : CM (complete main)
Format settings, Endianness : Big
Codec ID : 2000
Duration : 4mn 36s
Bit rate mode : Constant
Bit rate : 192 Kbps
Channel(s) : 2 channels
Channel positions : Front: L R
Sampling rate : 48.0 KHz
Bit depth : 16 bits
Compression mode : Lossy
Stream size : 6.33 MiB (8%)
Alignment : Aligned on interleaves
Interleave, duration : 40 ms (1.00 video frame)
Interleave, preload duration : 512 ms
d:\_Backup\Films\Барбоскины\132. 33 Ген.2014.XviD.WEBRip.avi
General
Complete name : d:\_Backup\Films\Барбоскины\132. 33 Ген.2014.XviD.WEBRip.avi
Format : AVI
Format/Info : Audio Video Interleave
File size : 70.6 MiB
Duration : 4mn 28s
Overall bit rate : 2 204 Kbps
Director : WEBRip by Thunder
Writing application : VirtualDubMod 1.5.10.3 | www.virtualdub-fr.org || (build 2550/release)
Writing library : VirtualDub build 32842/release
Video #0
ID : 0
Format : MPEG-4 Visual
Format profile : Advanced Simple@L5
Format settings, BVOP : 2
Format settings, QPel : No
Format settings, GMC : No warppoints
Format settings, Matrix : Default (H.263)
Codec ID : XVID
Codec ID/Hint : XviD
Duration : 4mn 28s
Bit rate : 2 002 Kbps
Width : 720 pixels
Height : 400 pixels
Display aspect ratio : 16:9
Frame rate : 25.000 fps
Color space : YUV
Chroma subsampling : 4:2:0
Bit depth : 8 bits
Scan type : Progressive
Compression mode : Lossy
Bits/(Pixel*Frame) : 0.278
Stream size : 64.1 MiB (91%)
Writing library : XviD 1.2.1 (UTC 2008-12-04)
Audio #1
ID : 1
Format : AC-3
Format/Info : Audio Coding 3
Mode extension : CM (complete main)
Format settings, Endianness : Big
Codec ID : 2000
Duration : 4mn 28s
Bit rate mode : Constant
Bit rate : 192 Kbps
Channel(s) : 2 channels
Channel positions : Front: L R
Sampling rate : 48.0 KHz
Bit depth : 16 bits
Compression mode : Lossy
Delay relative to video : 16ms
Stream size : 6.15 MiB (9%)
Alignment : Split accross interleaves
Interleave, duration : 40 ms (1.00 video frame)
Interleave, preload duration : 500 ms
info [Профиль]  [ЛС] 

Syrax

Пол: Пол:Муж

Стаж: 7 лет 8 месяцев

Сообщений: 542

Россия
Рейтинг

post 03-Сен-2014 17:55 (спустя 5 минут) [-]0[+]

[Цитировать] 

Раздача начнётся ориентировочно через 3...4 часа.
info [Профиль]  [ЛС] 

Syrax

Пол: Пол:Муж

Стаж: 7 лет 8 месяцев

Сообщений: 542

Россия
Рейтинг

post 28-Сен-2014 18:17 (спустя 25 дней) [-]0[+]

[Цитировать] 

Добавлены новые серии:
134. Популярная психология
135. День уступок
136. Аленький Цветочек
137. Билет на юг
info [Профиль]  [ЛС] 

post 31-Окт-2014 02:13 (спустя 1 месяц 2 дня) [-]0[+]

Топик был перенесен из форума Мультфильмы (HD Video) в форум Мультсериалы

BZzz
 

Khatarnak

Пол: Пол:Муж

Стаж: 2 года 6 месяцев

Сообщений: 7

Предупреждений: 1

Россия
Рейтинг

post 12-Ноя-2014 21:57 (спустя 1 месяц 14 дней) [-]0[+]

[Цитировать] 

Спасибо за раздачу. Малой смотрит, не отрываясь.

_________________
42
info [Профиль]  [ЛС] 

Syrax

Пол: Пол:Муж

Стаж: 7 лет 8 месяцев

Сообщений: 542

Россия
Рейтинг

post 13-Ноя-2014 22:26 (спустя 1 день) [-]0[+]

[Цитировать] 

Пожалуйста.
Добавлены новые серии:
138. Письмо
139. Сценическая речь
140. Как в кино
141. Пятёрка по физкультуре
142. Воздухоплаватель
info [Профиль]  [ЛС] 

suvenir

Пол: Пол:Муж

Стаж: 3 года 2 месяца

Сообщений: 3

Рейтинг

post 26-Ноя-2014 22:19 (спустя 12 дней) [-]0[+]

[Цитировать] 

Подскажите есть-ли раздачи с размером картинки ближе к 16х9?
info [Профиль]  [ЛС] 

FTyrail

Пол: Пол:Муж

Стаж: 7 лет 5 месяцев

Сообщений: 270

Предупреждений: 1

Россия
Рейтинг

post 15-Апр-2015 22:51 (спустя 4 месяца 19 дней) [-]0[+]

[Цитировать] 

когда новые серии?
info [Профиль]  [ЛС] 

Syrax

Пол: Пол:Муж

Стаж: 7 лет 8 месяцев

Сообщений: 542

Россия
Рейтинг

post 16-Апр-2015 01:17 (спустя 2 часа 25 минут) [-]0[+]

[Цитировать] 

У Вас есть информация о выходе новых серий? Я не нашёл.
info [Профиль]  [ЛС] 

Syrax

Пол: Пол:Муж

Стаж: 7 лет 8 месяцев

Сообщений: 542

Россия
Рейтинг

post 12-Фев-2016 23:53 (спустя 9 месяцев 26 дней) [-]0[+]

[Цитировать] 

Добавлены новые серии:
143. Лучший день
144. Прирожденный лидер
145. Самый честный город
146. Спасибо, Тимоха
147. Удача на завтрак
148. Спасение Земли
149. Мысленное излучение
150. Винтики-шпунтики
151. Романс
152. Пиастры
153. Чудес не бывает
154. Проявить смелость
155. Перезагрузка
156. Красота требует жертв
157. Амнезия
158. Здравствуй, Дедушка Мороз
info [Профиль]  [ЛС] 
Показать сообщения:    
Ответить на тему

Текущее время: 10-Дек 14:56

Часовой пояс: GMT + 4



Вы не можете начинать темы
Вы не можете отвечать на сообщения
Вы не можете редактировать свои сообщения
Вы не можете удалять свои сообщения
Вы не можете голосовать в опросах
Вы не можете прикреплять файлы к сообщениям
Вы не можете скачивать файлы