Ошибка

Как приручить дракона 2 / How to Train Your Dragon 2 (Дин ДеБлуа) [2014, мультфильм, фэнтези, комедия, приключения, семейный, BDRip] Dub от R.G. TNClub

Ответить на тему
 
Автор Сообщение

R.G. TNClub

Стаж: 2 года 3 месяца

Сообщений: 515

Рейтинг

post 02-Сен-2014 12:52 3[+]

[Цитировать] 

Как приручить дракона 2 / How to Train Your Dragon 2

Страна: CША
Жанр: мультфильм, фэнтези, комедия, приключения, семейный
Год выпуска: 2014
Продолжительность: 01:41:55
Перевод:
  • Профессиональный (дублированный) [Лицензия EUR]
Субтитры: ---
Оригинальная дорожка: ---
Главы: ---

Режиссер: Дин ДеБлуа
В ролях: Джей Барушель (Jay Baruchel), Кейт Бланшетт (Cate Blanchett), Джерард Батлер (Gerard Butler), Крэйг Фергюсон (Craig Ferguson), Америка Феррера (America Ferrera), Джона Хилл (Jonah Hill), Кристофер Минц-Плассе (Christopher Mintz-Plasse), ТиДжей Миллер (T.J. Miller)
Описание: С момента примирения викингов и драконов прошло пять лет. Пока Астрид, Сморкала и остальные ребята проводят время, соревнуясь друг с другом в популярных на острове драконьих гонках, Иккинг и Беззубик путешествуют по небу, составляя карту неизвестных мест. Когда одно из их приключений приводит к открытию тайной ледяной пещеры, которая является домом для сотен ранее невиданных диких драконов и таинственного драконьего всадника, два друга оказываются в центре битвы за защиту мира.


Качество видео: BDRip (энкод L)
Формат видео: AVI

Видео: 720x304 (2.35:1), 23.976 fps, XviD, ~1 605 Kbps
Аудио: Russian: 48 kHz, AC3 Dolby Digital, 3/2 (L,C,R,l,r) + LFE ch, ~448 kbps

Раздача от &
HOW_TO_TRAIN_YOUR_DRAGON_2

Код:

Общее
Полное имя                               : D:\L@TNClub\Kak.Priruchit.Drakona.2.2014.BDRip.xvid.rus.RG.TNClub.[by.L].avi
Формат                                   : AVI
Формат/Информация                        : Audio Video Interleave
Размер файла                             : 1,47 Гбайт
Продолжительность                        : 1 ч. 41 м.
Общий поток                              : 2062 Кбит/сек
Программа кодирования                    : VirtualDubMod 1.5.10.2 (build 2542/release)
Библиотека кодирования                   : VirtualDubMod build 2542/release

Видео
Идентификатор                            : 0
Формат                                   : MPEG-4 Visual
Профиль формата                          : Advanced Simple@L5
Параметр BVOP формата                    : 1
Параметр QPel формата                    : Нет
Параметр GMC формата                     : Без точки перехода
Параметр матрицы формата                 : Выборочная
Идентификатор кодека                     : XVID
Идентификатор кодека/Подсказка           : XviD
Продолжительность                        : 1 ч. 41 м.
Битрейт                                  : 1605 Кбит/сек
Ширина                                   : 720 пикселей
Высота                                   : 304 пикселя
Соотношение сторон                       : 2,35:1
Частота кадров                           : 23,976 кадра/сек
Цветовое пространство                    : YUV
Субдискретизация насыщенности            : 4:2:0
Битовая глубина                          : 8 бит
Тип развёртки                            : Прогрессивная
Метод сжатия                             : С потерями
Бит/(Пиксели*Кадры)                      : 0.306
Размер потока                            : 1,14 Гбайт (78%)
Библиотека кодирования                   : XviD 64

Аудио
Идентификатор                            : 1
Формат                                   : AC-3
Формат/Информация                        : Audio Coding 3
Расширение режима                        : CM (complete main)
Параметр Endianness формата              : Big
Идентификатор кодека                     : 2000
Продолжительность                        : 1 ч. 41 м.
Вид битрейта                             : Постоянный
Битрейт                                  : 448 Кбит/сек
Каналы                                   : 6 каналов
Расположение каналов                     : Front: L C R, Side: L R, LFE
Частота                                  : 48,0 КГц
Битовая глубина                          : 16 бит
Метод сжатия                             : С потерями
Размер потока                            : 327 Мбайт (22%)
Выравнивание                             : Разделение по промежуткам
Продолжительность промежутка             : 42  мс. (1,00 видеокадр)
Время предзагрузки промежутка            : 500  мс.
Внимание! Информация о раздаче
При перезаливе указывайте, пож-та, автора рипов L и R.G. TNClub, а также прикрепляйте лычку или баннер.
Пожалуйста, оставайтесь на раздаче как можно дольше!
Релиз специально для Tapochek.net


info [Профиль]  [ЛС] 

post 02-Сен-2014 12:53 (спустя 28 секунд) [-]0[+]

Топик был перенесен из форума Оформление раздач (R.G. TNClub) в форум Новинки 2013-2014 (Rips)

L
 

L

Пол: Пол:Муж

Стаж: 6 лет 7 месяцев

Сообщений: 10770

Украина
Рейтинг

post 18-Окт-2014 22:37 (спустя 1 месяц 16 дней) [-]0[+]

[Цитировать] 

Обновлено до BDRip.

_________________
info [Профиль]  [ЛС] 

Daddy_BOSS

Пол: Пол:Муж

Стаж: 3 года 10 месяцев

Сообщений: 4

Казахстан
Рейтинг

post 18-Окт-2014 22:55 (спустя 17 минут) [-]0[+]

[Цитировать] 

будет AVC?
info [Профиль]  [ЛС] 

L

Пол: Пол:Муж

Стаж: 6 лет 7 месяцев

Сообщений: 10770

Украина
Рейтинг

post 18-Окт-2014 23:03 (спустя 8 минут) [-]0[+]

[Цитировать] 

Daddy_BOSS
http://tapochek.net/viewtopic.php?t=157656

_________________
info [Профиль]  [ЛС] 

post 24-Ноя-2014 22:21 (спустя 1 месяц 5 дней) [-]0[+]

Топик был перенесен из форума Новинки 2013-2014 (Rips) в форум Зарубежные полнометражные мультфильмы

L
 

post 25-Сен-2015 09:42 (спустя 11 месяцев 6 дней) [-]0[+]

Топик был перенесен из форума Зарубежные полнометражные мультфильмы в форум Мультфильмы от R.G. TNclub

L
 
Показать сообщения:    
Ответить на тему

Текущее время: 04-Дек 10:02

Часовой пояс: GMT + 4



Вы не можете начинать темы
Вы не можете отвечать на сообщения
Вы не можете редактировать свои сообщения
Вы не можете удалять свои сообщения
Вы не можете голосовать в опросах
Вы не можете прикреплять файлы к сообщениям
Вы не можете скачивать файлы