Ошибка

Граница пустоты: Благословение будущего / Kara no Kyoukai: Mirai Fukuin [2013] [приключения] [BDRip] [720p] [Любительский]

Ответить на тему
 
Автор Сообщение

vadimklose

Пол: Пол:Муж

Стаж: 7 лет 5 месяцев

Сообщений: 1511

Великобритания
Рейтинг

post 22-Авг-2014 23:11 1[+]

[Цитировать] 

Граница пустоты: Благословение будущего / Kara no Kyoukai: Mirai Fukuin
Год выпуска: 2013
Страна: Япония
Жанр: приключения
Продолжительность: 01:28:00
Режиссер: Судо Томонори

Перевод: Любительский двухголосый (Ray & Eladiel)
Субтитры: нет
Релиз от: Ani-Mania

Описание:
Это история о предсказателях и предсказаниях. С раннего детства Шизуне Сео видела будущее других людей и её это всегда тяготило. Она раз за разом пыталась предупредить людей об опасности с помощью своего дара, но они не верили ей. Пока ,однажды, она не встретила странного парня по имени Кокута Микия.Человек, называющий себя Курамицу Мерука, работал подрывником. Он считал это именно работой, и ему всегда удавалось выходить сухим из воды, благодаря своему дару абсолютного предвидения. Пока, однажды, он не встретил девушку, которую не смог выявить в своём будущем, девушку по имени Рёги Шики.

Качество: BDRip 720p
Хардсаб: есть (лого группы)
Формат: MP4
Видео кодек: AVC
Аудио кодек: AAC
Видео: MPEG4 Video (H264) 1280x720 23.976fps 1647kbps, 8 bit
Аудио:AAC, 48.0 KHz, 2 ch, 192 bit
General
Format : MPEG-4
Format profile : Base Media
Codec ID : isom
File size : 1.14 GiB
Duration : 1h 28mn
Overall bit rate mode : Variable
Overall bit rate : 1 844 Kbps
Encoded date : UTC 2014-08-12 20:29:32
Tagged date : UTC 2014-08-12 20:29:32
Writing application : Yamb 2.1.0.0 [http://yamb.unite-video.com]

Video
ID : 1
Format : AVC
Format/Info : Advanced Video Codec
Format profile : High@L4.1
Format settings, CABAC : Yes
Format settings, ReFrames : 3 frames
Codec ID : avc1
Codec ID/Info : Advanced Video Coding
Duration : 1h 28mn
Bit rate mode : Variable
Bit rate : 1 648 Kbps
Maximum bit rate : 50.0 Mbps
Width : 1 280 pixels
Height : 720 pixels
Display aspect ratio : 16:9
Frame rate mode : Constant
Frame rate : 23.976 fps
Standard : NTSC
Color space : YUV
Chroma subsampling : 4:2:0
Bit depth : 8 bits
Scan type : Progressive
Bits/(Pixel*Frame) : 0.075
Stream size : 1.02 GiB (89%)
Language : English
Encoded date : UTC 2014-08-13 20:13:41
Tagged date : UTC 2014-08-12 20:29:40
Color primaries : BT.709
Transfer characteristics : BT.709
Matrix coefficients : BT.709

Audio
ID : 2
Format : AAC
Format/Info : Advanced Audio Codec
Format profile : LC
Codec ID : 40
Duration : 1h 28mn
Bit rate mode : Variable
Bit rate : 192 Kbps
Maximum bit rate : 201 Kbps
Channel(s) : 2 channels
Channel positions : Front: L R
Sampling rate : 48.0 KHz
Compression mode : Lossy
Stream size : 122 MiB (10%)
Language : English
Encoded date : UTC 2014-08-12 20:29:37
Tagged date : UTC 2014-08-12 20:29:40
info [Профиль]  [ЛС] 

SEVER

Стаж: 5 лет 4 месяца

Сообщений: 982

Рейтинг

post 05-Сен-2014 19:59 (спустя 13 дней) [-]2[+]

[Цитировать] 

Ого, я и не думал, что новую часть выпустят.

_________________
Inter core i5 4670k, gtx 650 ti boost, 8 gb ram
info [Профиль]  [ЛС] 

anoningen

Стаж: 3 года 6 месяцев

Сообщений: 323

Самоа
Рейтинг

post 06-Сен-2014 10:03 (спустя 14 часов) [-]0[+]

[Цитировать] 

А где отличия от http://tapochek.net/viewtopic.php?t=149193 ?
info [Профиль]  [ЛС] 

Black_millenium

Пол: Пол:Муж

Стаж: 4 года

Сообщений: 10

Россия
Рейтинг

post 06-Сен-2014 13:06 (спустя 3 часа) [-]0[+]

[Цитировать] 

vbhtoseu42 писал(а):

А где отличия от http://tapochek.net/viewtopic.php?t=149193 ?
Субтитров нет. kolob_107 Да и размер в 10 раз меньше.

_________________
Нихао-ня!
info [Профиль]  [ЛС] 

anoningen

Стаж: 3 года 6 месяцев

Сообщений: 323

Самоа
Рейтинг

post 06-Сен-2014 13:08 (спустя 1 минута) [-]1[+]

[Цитировать] 

Black_millenium писал(а):

vbhtoseu42 писал(а):

А где отличия от http://tapochek.net/viewtopic.php?t=149193 ?
Субтитров нет. kolob_107 Да и размер в 10 раз меньше.
А разве это не в шапке должно быть?
info [Профиль]  [ЛС] 

Rohi

Пол: Пол:Муж

Стаж: 5 лет 4 месяца

Сообщений: 19

Россия
Рейтинг

post 07-Сен-2014 10:21 (спустя 21 час) [-]0[+]

[Цитировать] 

vbhtoseu42 писал(а):

А разве это не в шапке должно быть?
А "Качество: BDRip 720p" Вам ни о чем не говорит? А "Перевод: Любительский двухголосный (Ray & Eladiel)"?
Эти два пункта сами по себе подразумевают что размер меньше обычного и присутствует озвучка, а не субтитры.
info [Профиль]  [ЛС] 

anoningen

Стаж: 3 года 6 месяцев

Сообщений: 323

Самоа
Рейтинг

post 07-Сен-2014 15:13 (спустя 4 часа) [-]0[+]

[Цитировать] 

Rohi писал(а):

А "Качество: BDRip 720p" Вам ни о чем не говорит? А "Перевод: Любительский двухголосный (Ray & Eladiel)"?
Эти два пункта сами по себе подразумевают что размер меньше обычного и присутствует озвучка, а не субтитры.
Да я прекрасно всё вижу, но:

Цитата:

6.4 Если в раздаче присутствую какие либо улучшения по сравнению с предыдущими раздачами, то в обязательном порядке релизер должен указать какие.

(При отсутствии указаний отличий, раздача считается дефективной и будет являться повторной)
info [Профиль]  [ЛС] 
Показать сообщения:    
Ответить на тему

Текущее время: 03-Дек 23:46

Часовой пояс: GMT + 4



Вы не можете начинать темы
Вы не можете отвечать на сообщения
Вы не можете редактировать свои сообщения
Вы не можете удалять свои сообщения
Вы не можете голосовать в опросах
Вы не можете прикреплять файлы к сообщениям
Вы не можете скачивать файлы