Ошибка

Приключения мистера Пибоди и Шермана / Mr. Peabody & Sherman (Роб Минкофф) [2014 г., мультфильм, фантастика, комедия, приключения, семейный, BDRip 720р]

Ответить на тему
 
Автор Сообщение

Beonikol

Пол: Пол:Муж

Стаж: 6 лет 11 месяцев

Сообщений: 202

Украина
Рейтинг

post 20-Авг-2014 20:01 0[+]

[Цитировать] 

Приключения мистера Пибоди и Шермана / Mr. Peabody & Sherman

Год выпуска: 2014
Страна: США
Жанр: мультфильм, фантастика, комедия, приключения, семейный
Продолжительность: 01:32:39
Перевод: Профессиональный (полное дублирование) |Дубляж, Blu-ray|
Язык субтитров: Russian (Forced, iTunes), Russian (iTunes), Ukrainian (Forced, iTunes), Ukrainian (iTunes), English (iTunes), English, English (SDH), English (SDH-COLORED)
Режиссер:
  • Роб Минкофф

В ролях:
  • Тай Бурелл, Макс Чарльз, Эриель Винтер, Стефен Колбер, Лесли Манн, Эллисон Дженни, Стэнли Туччи, Том МакГрат, Лэйк Белл, Зак Каллисон

Описание: Мистер Пибоди - бизнесмен, изобретатель, ученый, нобелевский лауреат, гурман, двукратный олимпийский чемпион и гений… который кроме всего прочего является собакой. При помощи своего самого неординарного изобретения - машины ВЕЙБЕК - мистер Пибоди и его приемный сын Шерман мгновенно перемещаются в прошлое, где становятся свидетелями самых важных исторических событий и общаются с известными историческими персонажами. Но когда Шерман нарушает правила путешествий во времени, нашим героям приходится вновь отправиться в путь - на сей раз с целью восстановления цепи исторических событий и спасения будущего. Кроме того, мистеру Пибоди предстоит справиться с самой сложной для него задачей - стать настоящим отцом для Шермана.

Качество: Blu-ray Rip
Формат: MKV
Видео кодек: H.264
Аудио кодек: AC3
Видео: 1280x694(OAR) at 23.976 fps, x264@L4.1, CRF, ~7070 kbps avg
Аудио 1: Russian: 48 kHz, DTS, 3/2 (L,C,R,l,r) + LFE ch, ~768.00 kbps avg |Дубляж, Blu-ray CEE|
Аудио 1: Ukrainian: 48 kHz, AC3, 3/2 (L,C,R,l,r) + LFE ch, ~448.00 kbps avg |Дубляж, Blu-ray CEE|
Аудио 2: English: 48 kHz, DTS-ES, 3/3 (L,C,R,l,c,r) + LFE ch, ~1536.00 kbps avg
Релиз от:

Общее
Общее
Уникальный идентификатор : 190120083290489232592106083292356225207 (0x8F07CBD0156B865984C771602EBF28B7)
Полное имя : E:\Mr.Peabody.&.Sherman.2014.720p.BluRay.DTS.Rus.Ukr.Eng.HDCLUB.mkv
Формат : Matroska
Версия формата : Version 2
Размер файла : 6,43 Гбайт
Продолжительность : 1 ч. 32 м.
Общий поток : 9953 Кбит/сек
Название фильма : Mr. Peabody & Sherman (2014) - Release for HDCLUB
Дата кодирования : UTC 2014-08-03 22:03:16
Программа кодирования : mkvmerge v3.4.0 ('Rapunzel') built on May 15 2010 09:38:20
Библиотека кодирования : libebml v0.8.0 + libmatroska v0.9.0

Видео
Идентификатор : 1
Формат : AVC
Формат/Информация : Advanced Video Codec
Профиль формата : High@L4.1
Параметр CABAC формата : Да
Параметр ReFrames формата : 9 кадров
Идентификатор кодека : V_MPEG4/ISO/AVC
Продолжительность : 1 ч. 32 м.
Битрейт : 7030 Кбит/сек
Ширина : 1280 пикселей
Высота : 694 пикселя
Соотношение сторон : 1,85:1
Режим частоты кадров : Постоянный
Частота кадров : 23,976 кадра/сек
Цветовое пространство : YUV
Субдискретизация насыщенности : 4:2:0
Битовая глубина : 8 бит
Тип развёртки : Прогрессивная
Бит/(Пиксели*Кадры) : 0.330
Размер потока : 4,54 Гбайт (71%)
Заголовок : Mr. Peabody & Sherman (2014) - Release for HDCLUB
Библиотека кодирования : x264 core 142 r2453kMod ea0ca51
Настройки программы : cabac=1 / ref=9 / deblock=1:-3:-3 / analyse=0x3:0x133 / me=umh / subme=10 / psy=1 / fade_compensate=0.00 / psy_rd=0.90:0.00 / mixed_ref=1 / me_range=24 / chroma_me=1 / trellis=2 / 8x8dct=1 / cqm=0 / deadzone=21,11 / fast_pskip=0 / chroma_qp_offset=-2 / threads=12 / lookahead_threads=3 / sliced_threads=0 / nr=0 / decimate=0 / interlaced=0 / bluray_compat=0 / constrained_intra=0 / fgo=0 / bframes=10 / b_pyramid=2 / b_adapt=2 / b_bias=0 / direct=3 / weightb=1 / open_gop=0 / weightp=2 / keyint=250 / keyint_min=23 / scenecut=40 / intra_refresh=0 / rc=crf / mbtree=0 / crf=15.3000 / qcomp=0.70 / qpmin=0 / qpmax=69 / qpstep=4 / ip_ratio=1.20 / pb_ratio=1.20 / aq=3:0.95
Язык : English
Default : Да
Forced : Нет

Аудио #1
Идентификатор : 2
Формат : DTS
Формат/Информация : Digital Theater Systems
Режим : 16
Параметр Endianness формата : Big
Идентификатор кодека : A_DTS
Продолжительность : 1 ч. 32 м.
Вид битрейта : Постоянный
Битрейт : 768 Кбит/сек
Каналы : 6 каналов
Расположение каналов : Front: L C R, Side: L R, LFE
Частота : 48,0 КГц
Битовая глубина : 24 бит
Метод сжатия : С потерями
Размер потока : 508 Мбайт (8%)
Заголовок : DTS 5.1 @ 768 kbps - DUB, Blu-ray CEE
Язык : Russian
Default : Да
Forced : Нет

Аудио #2
Идентификатор : 3
Формат : AC-3
Формат/Информация : Audio Coding 3
Расширение режима : CM (complete main)
Параметр Endianness формата : Big
Идентификатор кодека : A_AC3
Продолжительность : 1 ч. 32 м.
Вид битрейта : Постоянный
Битрейт : 448 Кбит/сек
Каналы : 6 каналов
Расположение каналов : Front: L C R, Side: L R, LFE
Частота : 48,0 КГц
Битовая глубина : 16 бит
Метод сжатия : С потерями
Размер потока : 296 Мбайт (5%)
Заголовок : AC3 5.1 @ 448 kbps - DUB, Blu-ray CEE
Язык : Ukrainian
Default : Нет
Forced : Нет

Аудио #3
Идентификатор : 4
Формат : DTS
Формат/Информация : Digital Theater Systems
Профиль формата : ES
Режим : 16
Параметр Endianness формата : Big
Идентификатор кодека : A_DTS
Продолжительность : 1 ч. 32 м.
Вид битрейта : Постоянный
Битрейт : 1509 Кбит/сек
Каналы : 6 каналов
Расположение каналов : Front: L C R, Side: L R, LFE
Частота : 48,0 КГц
Битовая глубина : 24 бит
Метод сжатия : С потерями
Задержка видео : 11 мс.
Размер потока : 998 Мбайт (15%)
Заголовок : DTS-ES 5.1 @ 1536 kbps
Язык : English
Default : Нет
Forced : Нет

Текст #1
Идентификатор : 5
Формат : UTF-8
Идентификатор кодека : S_TEXT/UTF8
Идентификатор кодека/Информация : UTF-8 Plain Text
Заголовок : Forced
Язык : Russian
Default : Да
Forced : Нет

Текст #2
Идентификатор : 6
Формат : UTF-8
Идентификатор кодека : S_TEXT/UTF8
Идентификатор кодека/Информация : UTF-8 Plain Text
Язык : Russian
Default : Нет
Forced : Нет

Текст #3
Идентификатор : 7
Формат : UTF-8
Идентификатор кодека : S_TEXT/UTF8
Идентификатор кодека/Информация : UTF-8 Plain Text
Заголовок : Forced
Язык : Ukrainian
Default : Нет
Forced : Нет

Текст #4
Идентификатор : 8
Формат : UTF-8
Идентификатор кодека : S_TEXT/UTF8
Идентификатор кодека/Информация : UTF-8 Plain Text
Язык : Ukrainian
Default : Нет
Forced : Нет

Текст #5
Идентификатор : 9
Формат : UTF-8
Идентификатор кодека : S_TEXT/UTF8
Идентификатор кодека/Информация : UTF-8 Plain Text
Заголовок : iTunes
Язык : English
Default : Нет
Forced : Нет

Текст #6
Идентификатор : 10
Формат : UTF-8
Идентификатор кодека : S_TEXT/UTF8
Идентификатор кодека/Информация : UTF-8 Plain Text
Язык : English
Default : Нет
Forced : Нет

Текст #7
Идентификатор : 11
Формат : UTF-8
Идентификатор кодека : S_TEXT/UTF8
Идентификатор кодека/Информация : UTF-8 Plain Text
Заголовок : SDH
Язык : English
Default : Нет
Forced : Нет

Текст #8
Идентификатор : 12
Формат : UTF-8
Идентификатор кодека : S_TEXT/UTF8
Идентификатор кодека/Информация : UTF-8 Plain Text
Заголовок : SDH-COLORED
Язык : English
Default : Нет
Forced : Нет

Меню
00:00:00.000 : en:00:00:00.000
00:03:48.061 : en:00:03:48.061
00:07:12.223 : en:00:07:12.223
00:11:02.495 : en:00:11:02.495
00:13:30.018 : en:00:13:30.018
00:17:29.465 : en:00:17:29.465
00:21:48.516 : en:00:21:48.516
00:26:39.306 : en:00:26:39.306
00:28:40.177 : en:00:28:40.177
00:30:53.101 : en:00:30:53.101
00:33:57.452 : en:00:33:57.452
00:35:29.919 : en:00:35:29.919
00:37:47.182 : en:00:37:47.182
00:41:27.652 : en:00:41:27.652
00:44:47.685 : en:00:44:47.685
00:48:16.352 : en:00:48:16.352
00:51:48.981 : en:00:51:48.981
00:54:56.543 : en:00:54:56.543
00:58:32.801 : en:00:58:32.801
01:00:49.187 : en:01:00:49.187
01:02:53.186 : en:01:02:53.186
01:04:39.084 : en:01:04:39.084
01:08:22.265 : en:01:08:22.265
01:11:13.728 : en:01:11:13.728
01:14:52.655 : en:01:14:52.655
01:20:27.448 : en:01:20:27.448
01:21:40.312 : en:01:21:40.312
01:22:39.580 : en:01:22:39.580

info [Профиль]  [ЛС] 

Okeblin1

Стаж: 3 года

Сообщений: 3

Рейтинг

post 22-Авг-2014 16:49 (спустя 1 день 20 часов) [-]0[+]

[Цитировать] 

Посмотрел,мультик понравился,лёгкий,не грузит. Кто знает ещё подобные фильмы/мульфильмы?
info [Профиль]  [ЛС] 

post 14-Сен-2014 10:37 (спустя 22 дня) [-]0[+]

Топик был перенесен из форума Новинки 2013-2014 (DVD, HD DVD, Blu-ray, HD Rips, Web-DL) в форум Мультфильмы (HD Video)

L
 
Показать сообщения:    
Ответить на тему

Текущее время: 04-Дек 10:13

Часовой пояс: GMT + 4



Вы не можете начинать темы
Вы не можете отвечать на сообщения
Вы не можете редактировать свои сообщения
Вы не можете удалять свои сообщения
Вы не можете голосовать в опросах
Вы не можете прикреплять файлы к сообщениям
Вы не можете скачивать файлы