Ошибка

Космос: Пространство и время / Cosmos: A SpaceTime Odyssey / (Сезон 1 Серии 1-13 из 13) (Билл Поуп / Билл Поуп / Bill Pope) [2014г., документальный, BDRip 720p]

Ответить на тему
 
Автор Сообщение

Noldor

Стаж: 4 года 11 месяцев

Сообщений: 1229

Рейтинг

post 18-Авг-2014 15:28 2[+]

[Цитировать] 

pic="http://i67.fastpic.ru/big/2014/0817/b7/e40e0c7f12bf0831d458bbabca5bc6b7.jpg"
Космос: Пространство и время / Cosmos: A SpaceTime Odyssey


  • Год выпуска: 2014
  • Страна: США
  • Жанр: Документальный
  • Продолжительность: ~00:43:00
  • Перевод: Профессиональный одноголосый, закадровый / Озвучено студией «Арк-ТВ» по заказу National Geographic
  • Субтитры: Отсутсвуют
  • Режиссёр: Билл Поуп / Bill Pope

  • В ролях:
    Нил Тайсон, Питер Эмшвиллер, Бетани Леви, Мехди Мерали, Nadia Rochelle Pfarr, Пол Телфер


  • Документальный сериал рассказывает о последних научных открытиях, которые были сделаны в области астронавтики, астрофизики и других наук. Сериал «Космос: Путешествие во времени» является продолжением научно-популярной серии фильмов «Космос: Персональное путешествие с Карлом Саганом» и отражает события последних трех десятилетий. Астрофизик Нил Деграсс Тайсон с соавторами (среди которых вдова Сагана Энн Драйэн) расскажет об открытых законах мира космоса, о возможности межпланетных путешествий и наблюдении за космическими процессами. Все самые сложные понятия представлены с потрясающей четкостью, в повествовании соединяются научная точность и эмоциональность. Трехмерная компьютерная графика, уникальные съемки и использование спецэффектов делают каждый эпизод захватывающим и необычным.


   

   

  • Качество: BDRip 720p
  • Формат: MKV
  • Аудио кодек : AC3 / DTS
  • Видео кодек : x264
  • Видео: 1280x720 at 23.976 fps, x264@L4.1, 2pass, 6420-10000 kbps avg
  • Аудио №1: RUS 48 kHz, AC3, 2/0 (L,R) ch, ~192.00 kbps avg
  • Аудио №2: ENG 48 kHz, DTS, 3/2 (L,C,R,l,r) + LFE ch, ~1509.00 kbps avg


1 сезон 1 серия - Standing Up in the Milky Way
1 сезон 2 серия - Some of the Things That Molecules Do
1 сезон 3 серия - When Knowledge Conquered Fear
1 сезон 4 серия - A Sky Full of Ghosts
1 сезон 5 серия - Hiding in the Light
1 сезон 6 серия - Deeper, Deeper, Deeper Still
1 сезон 7 серия - The Clean Room
1 сезон 8 серия - Sisters of the Sun
1 сезон 9 серия - The Lost Worlds of Planet Earth
1 сезон 10 серия - The Electric Boy
1 сезон 11 серия - The Immortals
1 сезон 12 серия - The World Set Free
1 сезон 13 серия - Unafraid of the Dark
General
Unique ID : 197525494804990734639395492681962111621 (0x949A06CA2D701F24A990CD5992FA4285)
Complete name : E:\Cosmos.A.Spacetime.Odyssey.2014.S01.720p.BDRip.Rus.Eng.HDCLUB\Cosmos.A.Spacetime.Odyssey.2014.S01E01.720p.BDRip.Rus.Eng.HDCLUB.mkv
Format : Matroska
Format version : Version 4 / Version 2
File size : 3.23 GiB
Duration : 46mn 3s
Overall bit rate : 10.0 Mbps
Movie name : Cosmos 2014 S01E01 Standing Up in the Milky Way - Release Messafan for HDCLUB
Encoded date : UTC 2014-06-27 12:26:41
Writing application : mkvmerge v6.9.1 ('Blue Panther') 64bit built on Apr 18 2014 18:23:38
Writing library : libebml v1.3.0 + libmatroska v1.4.1

Video
ID : 1
Format : AVC
Format/Info : Advanced Video Codec
Format profile : High@L4.1
Format settings, CABAC : Yes
Format settings, ReFrames : 9 frames
Codec ID : V_MPEG4/ISO/AVC
Duration : 46mn 3s
Bit rate : 8 324 Kbps
Width : 1 280 pixels
Height : 720 pixels
Display aspect ratio : 16:9
Frame rate mode : Constant
Frame rate : 23.976 fps
Color space : YUV
Chroma subsampling : 4:2:0
Bit depth : 8 bits
Scan type : Progressive
Bits/(Pixel*Frame) : 0.377
Stream size : 2.61 GiB (81%)
Title : Cosmos 2014 S01E01 Standing Up in the Milky Way - Release for HDCLUB
Writing library : x264 core 142 r2431kMod ac76440
Encoding settings : cabac=1 / ref=9 / deblock=1:-3:-3 / analyse=0x3:0x113 / me=umh / subme=10 / psy=1 / fade_compensate=0.00 / psy_rd=1.01:0.05 / mixed_ref=1 / me_range=32 / chroma_me=1 / trellis=2 / 8x8dct=1 / cqm=0 / deadzone=21,11 / fast_pskip=0 / chroma_qp_offset=-5 / threads=6 / lookahead_threads=1 / sliced_threads=0 / nr=0 / decimate=1 / interlaced=0 / bluray_compat=0 / constrained_intra=0 / fgo=0 / bframes=10 / b_pyramid=2 / b_adapt=2 / b_bias=0 / direct=3 / weightb=1 / open_gop=0 / weightp=1 / keyint=240 / keyint_min=23 / scenecut=40 / intra_refresh=0 / rc_lookahead=60 / rc=2pass / mbtree=1 / bitrate=8324 / ratetol=1.0 / qcomp=0.80 / qpmin=0 / qpmax=69 / qpstep=4 / cplxblur=20.0 / qblur=0.5 / vbv_maxrate=50000 / vbv_bufsize=62500 / nal_hrd=none / filler=0 / ip_ratio=1.25 / aq=1:0.70
Language : English
Default : Yes
Forced : No

Audio #1
ID : 2
Format : AC-3
Format/Info : Audio Coding 3
Mode extension : CM (complete main)
Format settings, Endianness : Big
Codec ID : A_AC3
Duration : 46mn 3s
Bit rate mode : Constant
Bit rate : 192 Kbps
Channel count : 2 channels
Channel positions : Front: L R
Sampling rate : 48.0 KHz
Bit depth : 16 bits
Compression mode : Lossy
Stream size : 63.2 MiB (2%)
Title : Nat Geo Rus / AC3 2.0 / 192kbps / 48KHz
Language : Russian
Default : Yes
Forced : No

Audio #2
ID : 3
Format : DTS
Format/Info : Digital Theater Systems
Mode : 16
Format settings, Endianness : Big
Codec ID : A_DTS
Duration : 46mn 3s
Bit rate mode : Constant
Bit rate : 1 509 Kbps
Channel count : 6 channels
Channel positions : Front: L C R, Side: L R, LFE
Sampling rate : 48.0 KHz
Bit depth : 24 bits
Compression mode : Lossy
Stream size : 497 MiB (15%)
Title : DTS / 5.1 / 1509 kbps / 48KHz
Language : English
Default : No
Forced : No

Menu
00:00:00.000 : en:Chapter 01
00:03:49.354 : en:Chapter 02
00:10:36.844 : en:Chapter 03
00:12:48.350 : en:Chapter 04
00:16:37.621 : en:Chapter 05
00:19:25.706 : en:Chapter 06
00:23:03.799 : en:Chapter 07
00:27:53.088 : en:Chapter 08
00:31:22.046 : en:Chapter 09
00:36:33.399 : en:Chapter 10
00:40:14.829 : en:Chapter 11
00:43:22.933 : en:Chapter 12





    info [Профиль]  [ЛС] 

    Arxont

    Стаж: 6 лет 8 месяцев

    Сообщений: 46

    Рейтинг

    post 18-Авг-2014 23:47 (спустя 8 часов) [-]0[+]

    [Цитировать] 

    с этой раздачи нужно было начинать!)) спс!
    info [Профиль]  [ЛС] 

    Nikohorse

    Стаж: 3 года 3 месяца

    Сообщений: 126

    Рейтинг

    post 02-Окт-2016 00:56 (спустя 2 года 1 месяц) [-]0[+]

    [Цитировать] 

    1 сид?! Это ужас! Дай качнуть, поддержу сей луч солцна в кромешной тьме невежества!

    _________________
    info [Профиль]  [ЛС] 
    Показать сообщения:    
    Ответить на тему

    Текущее время: 03-Дек 08:39

    Часовой пояс: GMT + 4



    Вы не можете начинать темы
    Вы не можете отвечать на сообщения
    Вы не можете редактировать свои сообщения
    Вы не можете удалять свои сообщения
    Вы не можете голосовать в опросах
    Вы не можете прикреплять файлы к сообщениям
    Вы не можете скачивать файлы