Ошибка

До окончания фрилича осталось:


Токийские вороны / Tokyo Ravens [TV] [1-24 из 24] [2013][комедия, мистика][BDRip] [720p] [Любительская, JAP+SUB]

Ответить на тему
 
Автор Сообщение

L

Пол: Пол:Муж

Стаж: 6 лет 8 месяцев

Сообщений: 10838

Украина
Рейтинг

post 08-Авг-2014 08:42 2[+]

[Цитировать] 


Год выпуска: 2013
Страна: Япония
Жанр: комедия, мистика
Продолжительность: ТВ, 24 эп. по 24 мин.
Выпуск: c 09.10.2013 по 26.03.2014
Озвучка:
  • двухголосая (муж./жен.) от Nyasheek & NesTea (SHIZA)
Субтитры:
  • русские субтитры от YakuSub Studio
    редактор: Harushechka, оформление: KeeperRus, переводчик/тайм-код: Nika_Elrik

Режиссер: Канасаки Такаоми
Студия: 8bit
Описание:
Маги-оммёдзи стоят на страже Японии от потустороннего зла. Законы «инь-янь» изучают в школе, а Двенадцать Небесных Генералов, сильнейшие маги современности, являются героями нации. Среди элиты всегда были представители клана Цутимикадо, происходящего от самого Абэ-но-Сэймэя. Наследник старшей ветви клана традиционно готовился к верховной власти, а наследник побочной ветви становился его сикигами – духовным воином-защитником. Именно это еще в нежном возрасте обещали друг другу наследники последнего поколения, но если юную Нацумэ с малых лет прочили в гении, то Харутора не мог даже видеть духов. Поняв, что таланта нет, парень бросил занятия магией и уехал, расстроив влюбленную кузину.

Главный герой искренне надеялся, что навсегда покинул мир чародейства, но не тут-то было! Прежде всего, на него, пускай по ошибке, напала Судзука Дайрэндзи, самая молодая из Двенадцати Генералов. Отступница охотилась за неким запретным ритуалом клана и приняла Хару за его сестру. А потом Цутимикадо и сам понял, что мир вокруг не таков, каким кажется, причем большинству магов на долг и родину наплевать, они преследуют личные цели, да и собственная семья не без греха. В миг просветления чувства к умной, честной и самоотверженной Нацумэ вспыхнули с новой силой – и парень исполнил детское обещание. А что, помимо магических битв, будет потом, вы и сами догадаетесь!
© Hollow, World Art

Имя Харутора значит «весенний тигр», а его кузина Нацумэ, конечно же, «летняя». Фамилию Цутимикадо можно понять как «земля возвышенных врат».
Информационные ссылки: AniDB || World Art || MAL
Качество: BDRip
Энкод: Winter - RG Pantheon
Тип видео: без хардсаба, без линковки
Формат: mkv
Видео: x264 (Hi10p), 1280x720, ~3700 Kbps, 23.976 fps
Аудио JAP: Vorbis, 48000Hz, ~256 Kbps, 2ch
Аудио RUS: AC3, 48000Hz, ~192 Kbps, 2ch (внешними файлами)
01. Shaman Clan: Promise
02. Shaman Clan: Confession
03. Shaman Clan: Calling the Dead
04. Raven`s Nest: School
05. Raven`s Nest: Bonds
06. Days in Nest: Holiday
07. Chimaira Dance: Ogre Eater
08. Chimaira Dance: Half-Ogre
09. Chimaira Dance: Purification
10. Girl Return: Prodigy
11. Girl Return: Tiger
12. Girl Return: Love
13. Black Shaman Assault: Priest
14. Black Shaman Assault: Face-off
15. Darkness Emerge: Encounter
16. Darkness Emerge: Divine Fan
17. Darkness Emerge: Razor
18. Over-cry: Assault
19. Over-cry: Princess
20. Over-cry: Fireworks
21. To the Dark Sky: Dark Night
22. To the Dark Sky: Protector
23. To the Dark Sky: Onmyo
24. To the Dark Sky: Calling the Dead
http://tapochek.net/viewtopic.php?t=154815
Другой перевод, альтернативная озвучка. Отсутствие японской дороги и руссабов
Общее
Уникальный идентификатор : 208678156637479408706796081656914597099 (0x9CFDF378B7E2E00CA8BAEB438C6154EB)
Полное имя : Z:\Anime\720p\Tokyo Ravens [BD] [720p]\[Winter] Tokyo Ravens 01 [BDrip 1280x720 x264 Vorbis].mkv
Формат : Matroska
Версия формата : Version 2
Размер файла : 682 Мбайт
Продолжительность : 23 м.
Режим общего битрейта : Переменный
Общий поток : 4018 Кбит/сек
Дата кодирования : UTC 2014-01-23 04:53:33
Программа кодирования : mkvmerge v2.9.8 ('C'est le bon') built on Aug 13 2009 12:49:06
Библиотека кодирования : libebml v0.7.7 + libmatroska v0.8.1

Видео
Идентификатор : 1
Формат : AVC
Формат/Информация : Advanced Video Codec
Профиль формата : High 10@L4.1
Параметр CABAC формата : Да
Параметр ReFrames формата : 9 кадров
Идентификатор кодека : V_MPEG4/ISO/AVC
Продолжительность : 23 м.
Битрейт : 3682 Кбит/сек
Ширина : 1280 пикселей
Высота : 720 пикселей
Соотношение сторон : 16:9
Режим частоты кадров : Постоянный
Частота кадров : 23,976 кадра/сек
Цветовое пространство : YUV
Субдискретизация насыщенности : 4:2:0
Битовая глубина : 10 бит
Тип развёртки : Прогрессивная
Бит/(Пиксели*Кадры) : 0.167
Размер потока : 625 Мбайт (92%)
Библиотека кодирования : x264 core 132 r2309 3b1f1f7
Настройки программы : cabac=1 / ref=9 / deblock=1:-2:-2 / analyse=0x3:0x133 / me=umh / subme=9 / psy=1 / psy_rd=0.90:0.00 / mixed_ref=1 / me_range=24 / chroma_me=1 / trellis=2 / 8x8dct=1 / cqm=0 / deadzone=21,11 / fast_pskip=1 / chroma_qp_offset=-2 / threads=12 / lookahead_threads=2 / sliced_threads=0 / nr=0 / decimate=0 / interlaced=0 / bluray_compat=0 / constrained_intra=0 / bframes=8 / b_pyramid=2 / b_adapt=2 / b_bias=0 / direct=1 / weightb=1 / open_gop=0 / weightp=2 / keyint=250 / keyint_min=23 / scenecut=40 / intra_refresh=0 / rc=crf / mbtree=0 / crf=15.7 / qcomp=0.70 / qpmin=9 / qpmax=40 / qpstep=4 / ip_ratio=1.40 / pb_ratio=1.30 / aq=1:0.90 / zones=1654,3750,b=1.2
Default : Нет
Forced : Нет

Аудио
Идентификатор : 2
Формат : Vorbis
Параметр Floor формата : 1
Идентификатор кодека : A_VORBIS
Продолжительность : 23 м.
Вид битрейта : Переменный
Битрейт : 256 Кбит/сек
Каналы : 2 канала
Частота : 48,0 КГц
Метод сжатия : С потерями
Размер потока : 43,4 Мбайт (6%)
Библиотека кодирования : libVorbis (Schaufenugget) (20101101 (Schaufenugget))
Язык : Japanese
Default : Да
Forced : Нет
info [Профиль]  [ЛС] 

Ritsu

Пол: Пол:Муж

Стаж: 5 лет 5 месяцев

Сообщений: 856

Австралия
Рейтинг

post 08-Авг-2014 20:58 (спустя 12 часов) [-]0[+]

[Цитировать] 

Как тайтл?

_________________
Флудите вместе с Рицу и будет вам счастье! ^__^

"...Зажжем рок в этой дыре!.."
info [Профиль]  [ЛС] 

Seregedel

Пол: Пол:Муж

Стаж: 3 года 9 месяцев

Сообщений: 5

Россия
Рейтинг

post 08-Авг-2014 23:59 (спустя 3 часа) [-]1[+]

[Цитировать] 

Ritsu писал(а):

Как тайтл?
Вполне достойный, собран из различных штампов и собран вполне хорошо. Оставляет после себя приятные ощущения. Однако, концовка слишком открытая, имхо. По идее отсняли не всю мангу, но как я понял там осталась лишь пара томов незатронутых. Когда же дорисуют необходимое для анимэ количество все уже забудут про данный тайтл и снимать 2-й сезон будет экономически невыгодно. В общем, я посмотрел и не жалею. Лёгкое и приятное анимэ, коротающее вечера.
info [Профиль]  [ЛС] 

Ritsu

Пол: Пол:Муж

Стаж: 5 лет 5 месяцев

Сообщений: 856

Австралия
Рейтинг

post 09-Авг-2014 08:40 (спустя 8 часов) [-]0[+]

[Цитировать] 

Seregedel
Спасибо :3

_________________
Флудите вместе с Рицу и будет вам счастье! ^__^

"...Зажжем рок в этой дыре!.."
info [Профиль]  [ЛС] 
Показать сообщения:    
Ответить на тему

Текущее время: 10-Дек 01:24

Часовой пояс: GMT + 4



Вы не можете начинать темы
Вы не можете отвечать на сообщения
Вы не можете редактировать свои сообщения
Вы не можете удалять свои сообщения
Вы не можете голосовать в опросах
Вы не можете прикреплять файлы к сообщениям
Вы не можете скачивать файлы