Ошибка

Оз: Возвращение в Изумрудный Город / Legends of Oz: Dorothy's Return (Уилл Финн, Дэн Ст. Пьер) [2013, мультфильм, мюзикл, семейный, BDRip 720p]

Ответить на тему
 
Автор Сообщение

BZzz

Пол: Пол:Муж

Стаж: 5 лет 1 месяц

Сообщений: 3647

Россия
Рейтинг

post 06-Авг-2014 14:01 0[+]

[Цитировать] 

Оз: Возвращение в Изумрудный Город / Legends of Oz: Dorothy's Return
«There's trouble in OZ...»




Год выпуска: 2013
Страна: США , Индия
Жанр: мультфильм, мюзикл, семейный
Продолжительность: 01:32:02
Перевод: Профессиональный (дублированный)[лицензия]

Режиссер: Уилл Финн, Дэн Ст. Пьер

В ролях: Лиа Мишель (Lea Michele), Патрик Стюарт (Patrick Stewart), Джеймс Белуши (James Belushi), Дэн Эйкройд (Dan Aykroyd), Келси Грэммер (Kelsey Grammer), Меган Хилти (Megan Hilty), Хью Дэнси (Hugh Dancy), Оливер Платт (Oliver Platt)

Описание: Дороти снова магическим образом переносится в страну Оз, чтобы спасти от беды ее жителей. Но оказывается, что старые друзья Дороти — Страшила, Железный Дровосек и Храбрый Лев — исчезли. Путешествуя по стране в поисках своих друзей, Дороти встречает новых попутчиков — Капитана Зефира, Фарфоровую Принцессу и филина Савву. Дороти должна помочь таким разным героям объединиться, чтобы одолеть нового злодея — шута Джестера, который хочет захватить страну Оз при помощи черной магии.

Бюджет: $70 000 000
Сборы в США: $8 462 027
Сборы в мире: + $2 938 000 = $11 400 027
Сборы в России: $4 081 731
Рейтинг MPAA:



Качество: BDRip 720p
Формат: MKV
Видео кодек: AVC
Аудио кодек: AC3
Видео: 1280x720 (16:9), 23.976 fps, High@L4.1, 3 588 Kbps
Аудио #1: Rus AC3, 448 Kbps, 48.0 KHz, 6 ch
Аудио #2: Eng DTS, 1 510 Kbps, 48.0 KHz, 6 ch
...
> В основе сюжета мультфильма — одноименная книга Роджера С. Баума, правнука Фрэнка Баума, создателя оригинальной истории про волшебника страны Оз.

" ...
> Меган Хилти ранее играла Глинду в мюзикле Wicked (Злой), который был основан на историях о стране Оз.

" ...
> Вильгельмов крик можно услышать в фильме, когда низкорослый человечек сбивает китайского солдата.
Формат : Matroska
Версия формата : Version 4 / Version 2
Размер файла : 3,57 Гбайт
Продолжительность : 1 ч. 32 м.
Общий поток : 5546 Кбит/сек
Дата кодирования : UTC 2010-02-22 21:41:31
Программа кодирования : mkvmerge v5.8.0 ('No Sleep / Pillow') built on Nov 13 2012 19:43:22
Библиотека кодирования : libebml v1.3.0 + libmatroska v1.4.0

Видео
Идентификатор : 1
Формат : AVC
Формат/Информация : Advanced Video Codec
Профиль формата : High@L4.1
Параметр CABAC формата : Да
Параметр ReFrames формата : 5 кадров
Идентификатор кодека : V_MPEG4/ISO/AVC
Продолжительность : 1 ч. 32 м.
Битрейт : 3588 Кбит/сек
Ширина : 1280 пикселей
Высота : 720 пикселей
Соотношение сторон : 16:9
Режим частоты кадров : Постоянный
Частота кадров : 23,976 кадра/сек
Цветовое пространство : YUV
Субдискретизация насыщенности : 4:2:0
Битовая глубина : 8 бит
Тип развёртки : Прогрессивная
Бит/(Пиксели*Кадры) : 0.162
Размер потока : 2,24 Гбайт (63%)
Библиотека кодирования : x264 core 142 r2453 ea0ca51
Настройки программы : cabac=1 / ref=5 / deblock=1:0:0 / analyse=0x3:0x133 / me=umh / subme=7 / psy=1 / psy_rd=1.00:0.00 / mixed_ref=1 / me_range=16 / chroma_me=1 / trellis=1 / 8x8dct=1 / cqm=0 / deadzone=21,11 / fast_pskip=1 / chroma_qp_offset=-2 / threads=8 / lookahead_threads=1 / sliced_threads=0 / nr=0 / decimate=1 / interlaced=0 / bluray_compat=0 / constrained_intra=0 / bframes=3 / b_pyramid=2 / b_adapt=2 / b_bias=0 / direct=3 / weightb=1 / open_gop=0 / weightp=2 / keyint=250 / keyint_min=23 / scenecut=40 / intra_refresh=0 / rc_lookahead=50 / rc=2pass / mbtree=1 / bitrate=3588 / ratetol=1.0 / qcomp=0.60 / qpmin=0 / qpmax=69 / qpstep=4 / cplxblur=20.0 / qblur=0.5 / ip_ratio=1.40 / aq=1:1.00
Язык : English
Default : Да
Forced : Нет

Аудио #1
Идентификатор : 2
Формат : AC-3
Формат/Информация : Audio Coding 3
Расширение режима : CM (complete main)
Параметр Endianness формата : Big
Идентификатор кодека : A_AC3
Продолжительность : 1 ч. 32 м.
Вид битрейта : Постоянный
Битрейт : 448 Кбит/сек
Каналы : 6 каналов
Расположение каналов : Front: L C R, Side: L R, LFE
Частота : 48,0 КГц
Битовая глубина : 16 бит
Метод сжатия : С потерями
Размер потока : 295 Мбайт (8%)
Язык : Russian
Default : Да
Forced : Нет

Аудио #2
Идентификатор : 3
Формат : DTS
Формат/Информация : Digital Theater Systems
Режим : 16
Параметр Endianness формата : Big
Идентификатор кодека : A_DTS
Продолжительность : 1 ч. 32 м.
Вид битрейта : Постоянный
Битрейт : 1509 Кбит/сек
Каналы : 6 каналов
Расположение каналов : Front: L C R, Side: L R, LFE
Частота : 48,0 КГц
Битовая глубина : 24 бит
Метод сжатия : С потерями
Размер потока : 993 Мбайт (27%)
Язык : English
Default : Нет
Forced : Нет

Меню
00:00:00.000 : en:00:00:00.000
00:03:40.846 : en:00:03:40.846
00:05:14.731 : en:00:05:14.731
00:08:57.036 : en:00:08:57.036
00:12:02.305 : en:00:12:02.305
00:15:57.623 : en:00:15:57.623
00:19:32.630 : en:00:19:32.630
00:22:26.971 : en:00:22:26.971
00:25:17.266 : en:00:25:17.266
00:28:02.055 : en:00:28:02.055
00:29:57.254 : en:00:29:57.254
00:33:34.012 : en:00:33:34.012
00:35:27.167 : en:00:35:27.167
00:38:47.534 : en:00:38:47.534
00:43:44.956 : en:00:43:44.956
00:46:06.389 : en:00:46:06.389
00:48:36.622 : en:00:48:36.622
00:51:07.439 : en:00:51:07.439
00:54:42.738 : en:00:54:42.738
00:56:01.817 : en:00:56:01.817
00:59:25.854 : en:00:59:25.854
01:04:15.643 : en:01:04:15.643
01:06:54.844 : en:01:06:54.844
01:11:13.936 : en:01:11:13.936
01:14:10.905 : en:01:14:10.905
01:17:43.242 : en:01:17:43.242
01:21:38.102 : en:01:21:38.102
01:24:06.041 : en:01:24:06.041
info [Профиль]  [ЛС] 

xwest

Пол: Пол:Муж

Стаж: 7 лет 3 месяца

Сообщений: 40

Япония
Рейтинг

post 06-Авг-2014 22:09 (спустя 8 часов) [-]0[+]

[Цитировать] 

Пасибки!!!
info [Профиль]  [ЛС] 

Painkid

Стаж: 2 года 6 месяцев

Сообщений: 6

Рейтинг

post 07-Авг-2014 16:22 (спустя 18 часов) [-]0[+]

[Цитировать] 

Вчера вечером посмотрел этот мульт.. все еще не понимаю куда столько бабла ушло ?
info [Профиль]  [ЛС] 

BZzz

Пол: Пол:Муж

Стаж: 5 лет 1 месяц

Сообщений: 3647

Россия
Рейтинг

post 17-Авг-2014 22:45 (спустя 10 дней) [-]0[+]

[Цитировать] 

 !  BZzz:
...лицензия
info [Профиль]  [ЛС] 

post 14-Сен-2014 10:37 (спустя 27 дней) [-]0[+]

Топик был перенесен из форума Новинки 2013-2014 (DVD, HD DVD, Blu-ray, HD Rips, Web-DL) в форум Мультфильмы (HD Video)

L
 
Показать сообщения:    
Ответить на тему

Текущее время: 05-Дек 16:33

Часовой пояс: GMT + 4



Вы не можете начинать темы
Вы не можете отвечать на сообщения
Вы не можете редактировать свои сообщения
Вы не можете удалять свои сообщения
Вы не можете голосовать в опросах
Вы не можете прикреплять файлы к сообщениям
Вы не можете скачивать файлы