Ошибка

Атомный лес [Сезон 1; Серии 1-10 из 10] (Алексей Лебедев) [2012 г., комедия, SatRip]

Ответить на тему
 
Автор Сообщение

akamutzo

Пол: Пол:Муж

Стаж: 2 года 5 месяцев

Сообщений: 28

Россия
Рейтинг

post 27-Июл-2014 21:01 0[+]

[Цитировать] 

pic="http://s001.youpic.su/pictures/1406404800/5615102c0aa30f5ab3a1af7938263498.png"
Атомный лес

Год выпуска: 2012
Страна: Россия
Жанр: Комедия, мультсериал
Продолжительность: 03:41:22
Перевод: Профессиональный (Многоголосый, закадровый) (2x2)
Субтитры: Отсутствуют
Сезон: 1
Серии: 1-10 из 10
Режиссер:
  • Алексей Лебедев
В ролях:
  • Михаил Хрусталев
  • Андрей Лёвин
  • Елена Шульман
  • Антон Виноградов
  • Игорь Яковель

Описание:
Мутанты — не всегда плохо! В далёком будущем, в котором человечество давно покорило космос, в автоматах на улицах продаются термоядерный синтез и нанотанки, люди больше похожи на лишённых эмоций инопланетян. В течение ста лет после ядерной аварии в огороженной зоне «А» выросли несколько поколений животных. Мутировав под воздействием радиации, они стали не глупее среднестатистического человека. Звери живут на останках человеческой цивилизации, которые поглотил лес, и вполне успешно пользуются её плодами. Несмотря на приобретённый ум, звери сохранили все свои инстинкты, и им постоянно приходится разрываться между привычной природой и приобретённым социумом. В чью пользу будет перевес?

Качество: SATRip
Формат: AVI
Видеокодек: XviD
Аудиокодек: MPEG Layer 3
Видео: 720x527, 16:9, ~1600 Kbps avg, 25 fps
Аудио: 48000 Hz, 2 ch, 192 kbps

01. Здравствуй, папа
02. Кровавая свадьба
03. Лапы
04. Инстинкт требует жертв. Часть 1
05. Инстинкт требует жертв. Часть 2
06. Бремя самца
07. Мой Мишель
08. Последняя Любовь
09. Поводы жить
10. Теперь надо жить осторожней
General
Complete name : D:\Видео\Анимация 2x2\Атомный лес\Atomnij_les_01.avi
Format : AVI
Format/Info : Audio Video Interleave
File size : 329 MiB
Duration : 22mn 4s
Overall bit rate : 2 085 Kbps
Writing application : VirtualDubMod 1.5.10.2 (build 2542/release)
Writing library : VirtualDubMod build 2542/release

Video
ID : 0
Format : MPEG-4 Visual
Format profile : Advanced Simple@L5
Format settings, BVOP : 1
Format settings, QPel : No
Format settings, GMC : No warppoints
Format settings, Matrix : Default (H.263)
Muxing mode : Packed bitstream
Codec ID : XVID
Codec ID/Hint : XviD
Duration : 22mn 4s
Bit rate : 1 884 Kbps
Width : 720 pixels
Height : 527 pixels
Display aspect ratio : 1.667
Frame rate : 25.000 fps
Color space : YUV
Chroma subsampling : 4:2:0
Bit depth : 8 bits
Scan type : Progressive
Compression mode : Lossy
Bits/(Pixel*Frame) : 0.242
Stream size : 297 MiB (90%)
Writing library : XviD 64

Audio
ID : 1
Format : MPEG Audio
Format version : Version 1
Format profile : Layer 3
Mode : Joint stereo
Mode extension : MS Stereo
Codec ID : 55
Codec ID/Hint : MP3
Duration : 22mn 4s
Bit rate mode : Constant
Bit rate : 192 Kbps
Channel(s) : 2 channels
Sampling rate : 48.0 KHz
Compression mode : Lossy
Stream size : 30.3 MiB (9%)
Alignment : Split accross interleaves
Interleave, duration : 40 ms (1.00 video frame)
Interleave, preload duration : 500 ms
info [Профиль]  [ЛС] 

L

Пол: Пол:Муж

Стаж: 6 лет 7 месяцев

Сообщений: 10812

Украина
Рейтинг

post 28-Июл-2014 08:30 (спустя 11 часов) [-]0[+]

[Цитировать] 

Заголовок оформите, пож-та, по шаблону. Загляните в раздел сериалом.
Порядок оформления также поправьте по шаблону
Размер скриншотов не совпадает с размером кадра в тех.данных.

_________________
info [Профиль]  [ЛС] 

akamutzo

Пол: Пол:Муж

Стаж: 2 года 5 месяцев

Сообщений: 28

Россия
Рейтинг

post 28-Июл-2014 09:31 (спустя 1 час) [-]0[+]

[Цитировать] 

L писал(а):

Заголовок оформите, пож-та, по шаблону. Загляните в раздел сериалом.
Порядок оформления также поправьте по шаблону
Размер скриншотов не совпадает с размером кадра в тех.данных.
Поправил
info [Профиль]  [ЛС] 

L

Пол: Пол:Муж

Стаж: 6 лет 7 месяцев

Сообщений: 10812

Украина
Рейтинг

post 28-Июл-2014 09:45 (спустя 13 минут) [-]0[+]

[Цитировать] 

Количество сезонов и серий вы зачем убрали?

_________________
info [Профиль]  [ЛС] 

akamutzo

Пол: Пол:Муж

Стаж: 2 года 5 месяцев

Сообщений: 28

Россия
Рейтинг

post 28-Июл-2014 09:51 (спустя 6 минут) [-]0[+]

[Цитировать] 

L писал(а):

Количество сезонов и серий вы зачем убрали?
Случайно. Вернул
info [Профиль]  [ЛС] 

L

Пол: Пол:Муж

Стаж: 6 лет 7 месяцев

Сообщений: 10812

Украина
Рейтинг

post 28-Июл-2014 09:52 (спустя 56 секунд) [-]0[+]

[Цитировать] 

akamutzo
В заголовок не вернули.

_________________
info [Профиль]  [ЛС] 

akamutzo

Пол: Пол:Муж

Стаж: 2 года 5 месяцев

Сообщений: 28

Россия
Рейтинг

post 28-Июл-2014 10:08 (спустя 15 минут) [-]0[+]

[Цитировать] 

L писал(а):

akamutzo
В заголовок не вернули.
Готово
info [Профиль]  [ЛС] 

L

Пол: Пол:Муж

Стаж: 6 лет 7 месяцев

Сообщений: 10812

Украина
Рейтинг

post 28-Июл-2014 10:08 (спустя 11 секунд) [-]0[+]

[Цитировать] 

Описание перенес сам по шаблону.

_________________
info [Профиль]  [ЛС] 

post 28-Июл-2014 10:08 (спустя 22 секунды) [-]0[+]

Топик был перенесен из форума Анонсы в форум Мультсериалы

L
 

viktorius3

Пол: Пол:Муж

Стаж: 5 лет 5 месяцев

Сообщений: 436

Предупреждений: 2

Новая Зеландия
Рейтинг

post 28-Июл-2014 12:29 (спустя 2 часа 21 минута) [-]1[+]

[Цитировать] 

смотрел два сезона -прикольный мульт. для любителей футурамы и других подобных мультов. только тут не космос а мутанты тупят)))

_________________
info [Профиль]  [ЛС] 

eldest

Пол: Пол:Муж

Стаж: 7 лет 2 месяца

Сообщений: 291

Россия
Рейтинг

post 28-Июл-2014 13:36 (спустя 1 час 7 минут) [-]0[+]

[Цитировать] 

viktorius3 писал(а):

смотрел два сезона -прикольный мульт. для любителей футурамы и других подобных мультов. только тут не космос а мутанты тупят)))
Не знаю, не знаю, я люблю Футураму и Симпсонов, но этот мульт вообще не перевариваю. =\
info [Профиль]  [ЛС] 

asqd

Стаж: 7 лет 8 месяцев

Сообщений: 48

Рейтинг

post 28-Июл-2014 20:30 (спустя 6 часов) [-]1[+]

[Цитировать] 

Отличный сериал, видно, что у нас могут сделать качественный продукт, когда есть идеи и относительная свобода творчества. К тому же, Атомный лес много лучше того шлака, что на Адалт Свиме показывают.
info [Профиль]  [ЛС] 
Показать сообщения:    
Ответить на тему

Текущее время: 07-Дек 22:26

Часовой пояс: GMT + 4



Вы не можете начинать темы
Вы не можете отвечать на сообщения
Вы не можете редактировать свои сообщения
Вы не можете удалять свои сообщения
Вы не можете голосовать в опросах
Вы не можете прикреплять файлы к сообщениям
Вы не можете скачивать файлы