Ошибка

Унесённые призраками / Sen to Chihiro no Kamikakushi / Spirited Away [Movie][2001][Приключения, фэнтези][BDRip][720p][Дублированный, JAP+SUB]

Ответить на тему
 
Автор Сообщение

Beonikol

Пол: Пол:Муж

Стаж: 6 лет 11 месяцев

Сообщений: 202

Украина
Рейтинг

post 22-Июл-2014 21:31 5[+]

[Цитировать] 

Унесённые призраками / Sen to Chihiro no Kamikakushi / Spirited Away

Год выпуска: 2001
Страна: Япония
Жанр: приключения, фэнтези
Тип: Movie
Продолжительность: 02:04:32
Озвучка RUS: Дубляж, |Невафильм, R5, CP Digital/RUSCICO|, Многоголосый закадровый, |2х2|, Многоголосый закадровый, |DVDXpert|, Двухголосый закадровый, |Tycoon-Studio|, Двухголосый закадровый, |П. Гланц, И. Королёва|, Одноголосый закадровый, |Ю. Сербин|, Одноголосый закадровый, |А. Гаврилов|, Одноголосый закадровый, |А. Толстобров|, Одноголосый закадровый, |С. Рябов|, Одноголосый закадровый, |Е. Рудой|
Озвучка UKR: Многоголосый закадровый, |ТЕТ|, Многоголосый закадровый, |R.G. AnimEx & AniFilm & UkrDub|
Озвучка ENG: |Дубляж|
Язык субтитров: Russian (R5), Ukrainian, English, Japanese
Режиссер:
  • Хаяо Миядзаки

Студия:
  • Studio Ghibli

Описание: Маленькая Тихиро вместе с мамой и папой переезжают в новый дом. Заблудившись по дороге, они оказываются в странном пустынном городе, где их ждет великолепный пир. Родители с жадностью набрасываются на еду и к ужасу девочки превращаются в свиней, став пленниками злой колдуньи Юбабы, властительницы таинственного мира древних богов и могущественных духов.
Теперь, оказавшись одна среди магических существ и загадочных видений, отважная Тихиро должна придумать, как избавить своих родителей от чар коварной старухи и спастись из пугающего царства призраков...

Качество: BDRip 720p | DON!
Тип релиза: Без хардсаба
Формат видео: MKV
Видео: 1280x692 at 23.976 fps, x264@L4.1, ~3000 kbps avg
Аудио 1: RUS: 48 kHz, DTS, 3/2 (L,C,R,l,r) + LFE ch, ~768.00 kbps avg |Дубляж, Невафильм, R5, CP Digital/RUSCICO|
Аудио 2: RUS: 48 kHz, AC3, 2/0 (L,R) ch, ~192 kbps avg |Многоголосый закадровый, 2х2|
Аудио 3: RUS: 48 kHz, AC3, 3/2 (L,C,R,l,r) + LFE ch, ~640 kbps avg |Многоголосый закадровый, DVDXpert|
Аудио 4: RUS: 48 kHz, AC3, 3/2 (L,C,R,l,r) + LFE ch, ~640 kbps avg |Двухголосый закадровый, Tycoon-Studio|
Аудио 5: RUS: 48 kHz, AC3, 3/2 (L,C,R,l,r) + LFE ch, ~640 kbps avg |Двухголосый закадровый, П. Гланц, И. Королёва|
Аудио 6: RUS: 48 kHz, AC3, 3/2 (L,C,R,l,r) + LFE ch, ~640 kbps avg |Одноголосый закадровый, Ю. Сербин|
Аудио 7: RUS: 48 kHz, AC3, 3/2 (L,C,R,l,r) + LFE ch, ~640 kbps avg |Одноголосый закадровый, А. Гаврилов|
Аудио 8: RUS: 48 kHz, AC3, 3/2 (L,C,R,l,r) + LFE ch, ~640 kbps avg |Одноголосый закадровый, А. Толстобров|
Аудио 9: RUS: 48 kHz, AC3, 3/2 (L,C,R,l,r) + LFE ch, ~640 kbps avg |Одноголосый закадровый, С. Рябов|
Аудио 10: RUS: 48 kHz, AC3, 3/2 (L,C,R,l,r) + LFE ch, ~640 kbps avg |Одноголосый закадровый, Е. Рудой|
Аудио 11: JAP: 48 kHz, AC3, 3/2 (L,C,R,l,r) + LFE ch, ~640 kbps avg
Аудио 12: UKR: 48 kHz, AC3, 2/0 (L,R) ch, ~192 kbps avg |Многоголосый закадровый, ТЕТ|
Аудио 13: UKR: 48 kHz, AC3, 2/0 (L,R) ch, ~192 kbps avg |Многоголосый закадровый, R.G. AnimEx & AniFilm & UkrDub|
Аудио 14: ENG: 48 kHz, AC3, 3/2 (L,C,R,l,r) + LFE ch, ~448.00 kbps avg |Дубляж|
Субтитры: srt
Релиз от:

Общее
Уникальный идентификатор : 247295469140694118396676404399595406642 (0xBA0B5FFA4B4BB6988D97B5F1DCD54532)
Полное имя : E:\Razdaja\Unes priz\Sen.to.Chihiro.no.kamikakushi.2001.720p.BluRay.10xRus.2xUkr.Jap.Eng.HDCLUB.mkv
Формат : Matroska
Версия формата : Version 4 / Version 2
Размер файла : 9,17 Гбайт
Продолжительность : 2 ч. 4 м.
Общий поток : 10,5 Мбит/сек
Дата кодирования : UTC 2014-07-21 13:46:52
Программа кодирования : mkvmerge v6.9.1 ('Blue Panther') 64bit built on Apr 18 2014 18:23:38
Библиотека кодирования : libebml v1.3.0 + libmatroska v1.4.1

Видео
Идентификатор : 1
Формат : AVC
Формат/Информация : Advanced Video Codec
Профиль формата : High@L4.1
Параметр CABAC формата : Да
Параметр ReFrames формата : 9 кадров
Идентификатор кодека : V_MPEG4/ISO/AVC
Продолжительность : 2 ч. 4 м.
Битрейт : 2797 Кбит/сек
Номинальный битрейт : 3000 Кбит/сек
Ширина : 1280 пикселей
Высота : 692 пикселя
Соотношение сторон : 1,85:1
Режим частоты кадров : Постоянный
Частота кадров : 23,976 кадра/сек
Цветовое пространство : YUV
Субдискретизация насыщенности : 4:2:0
Битовая глубина : 8 бит
Тип развёртки : Прогрессивная
Бит/(Пиксели*Кадры) : 0.132
Размер потока : 2,43 Гбайт (27%)
Библиотека кодирования : x264 core 142 r2431+42 c69a006 tMod [8-bit@4:2:0 X86_64]
Настройки программы : cabac=1 / ref=9 / deblock=1:-3:-3 / analyse=0x3:0x113 / me=umh / subme=11 / psy=1 / fade_compensate=0.00 / psy_rd=0.70:0.00 / mixed_ref=1 / me_range=32 / chroma_me=1 / trellis=2 / 8x8dct=1 / cqm=0 / deadzone=21,11 / fast_pskip=0 / chroma_qp_offset=-2 / threads=6 / lookahead_threads=1 / sliced_threads=0 / nr=0 / decimate=0 / interlaced=0 / bluray_compat=0 / constrained_intra=0 / fgo=0 / bframes=10 / b_pyramid=2 / b_adapt=2 / b_bias=0 / direct=3 / weightb=1 / open_gop=0 / weightp=2 / keyint=250 / keyint_min=23 / scenecut=40 / intra_refresh=0 / rc_lookahead=60 / rc=2pass / mbtree=0 / bitrate=3000 / ratetol=1.0 / qcomp=0.70 / qpmin=0:0:0 / qpmax=69:69:69 / qpstep=4 / cplxblur=20.0 / qblur=0.5 / vbv_maxrate=62500 / vbv_bufsize=78125 / nal_hrd=none / filler=0 / ip_ratio=1.40 / pb_ratio=1.30 / aq=4:0.75 / aq-sensitivity=10.00 / aq-factor=1.00:1.00:1.00 / aq2=0 / aq3=0 / zones=6281,6352,b=1.05/6519,7037,b=1.15/16796,17155,b=1.2/18280,33256,b=1.4/48955,57547,b=1.2/151456,155398,b=1.3
Default : Нет
Forced : Нет

Аудио #1
Идентификатор : 2
Формат : DTS
Формат/Информация : Digital Theater Systems
Режим : 16
Параметр Endianness формата : Big
Идентификатор кодека : A_DTS
Продолжительность : 2 ч. 4 м.
Вид битрейта : Постоянный
Битрейт : 755 Кбит/сек
Каналы : 6 каналов
Расположение каналов : Front: L C R, Side: L R, LFE
Частота : 48,0 КГц
Битовая глубина : 24 бит
Метод сжатия : С потерями
Размер потока : 672 Мбайт (7%)
Заголовок : Dub - R5
Язык : Russian
Default : Да
Forced : Нет

Аудио #2
Идентификатор : 3
Формат : AC-3
Формат/Информация : Audio Coding 3
Расширение режима : CM (complete main)
Параметр Endianness формата : Big
Идентификатор кодека : A_AC3
Продолжительность : 2 ч. 4 м.
Вид битрейта : Постоянный
Битрейт : 192 Кбит/сек
Каналы : 2 канала
Расположение каналов : Front: L R
Частота : 48,0 КГц
Битовая глубина : 16 бит
Метод сжатия : С потерями
Размер потока : 171 Мбайт (2%)
Заголовок : MVO - 2x2
Язык : Russian
Default : Нет
Forced : Нет

Аудио #3
Идентификатор : 4
Формат : AC-3
Формат/Информация : Audio Coding 3
Расширение режима : CM (complete main)
Параметр Endianness формата : Big
Идентификатор кодека : A_AC3
Продолжительность : 2 ч. 4 м.
Вид битрейта : Постоянный
Битрейт : 640 Кбит/сек
Каналы : 6 каналов
Расположение каналов : Front: L C R, Side: L R, LFE
Частота : 48,0 КГц
Битовая глубина : 16 бит
Метод сжатия : С потерями
Размер потока : 570 Мбайт (6%)
Заголовок : MVO - DVDXpert
Язык : Russian
Default : Нет
Forced : Нет

Аудио #4
Идентификатор : 5
Формат : AC-3
Формат/Информация : Audio Coding 3
Расширение режима : CM (complete main)
Параметр Endianness формата : Big
Идентификатор кодека : A_AC3
Продолжительность : 2 ч. 4 м.
Вид битрейта : Постоянный
Битрейт : 640 Кбит/сек
Каналы : 6 каналов
Расположение каналов : Front: L C R, Side: L R, LFE
Частота : 48,0 КГц
Битовая глубина : 16 бит
Метод сжатия : С потерями
Размер потока : 570 Мбайт (6%)
Заголовок : DVO - Tycoon
Язык : Russian
Default : Нет
Forced : Нет

Аудио #5
Идентификатор : 6
Формат : AC-3
Формат/Информация : Audio Coding 3
Расширение режима : CM (complete main)
Параметр Endianness формата : Big
Идентификатор кодека : A_AC3
Продолжительность : 2 ч. 4 м.
Вид битрейта : Постоянный
Битрейт : 640 Кбит/сек
Каналы : 6 каналов
Расположение каналов : Front: L C R, Side: L R, LFE
Частота : 48,0 КГц
Битовая глубина : 16 бит
Метод сжатия : С потерями
Размер потока : 570 Мбайт (6%)
Заголовок : DVO - Glanz, Koroleva
Язык : Russian
Default : Нет
Forced : Нет

Аудио #6
Идентификатор : 7
Формат : AC-3
Формат/Информация : Audio Coding 3
Расширение режима : CM (complete main)
Параметр Endianness формата : Big
Идентификатор кодека : A_AC3
Продолжительность : 2 ч. 4 м.
Вид битрейта : Постоянный
Битрейт : 640 Кбит/сек
Каналы : 6 каналов
Расположение каналов : Front: L C R, Side: L R, LFE
Частота : 48,0 КГц
Битовая глубина : 16 бит
Метод сжатия : С потерями
Размер потока : 570 Мбайт (6%)
Заголовок : AVO - Serbin
Язык : Russian
Default : Нет
Forced : Нет

Аудио #7
Идентификатор : 8
Формат : AC-3
Формат/Информация : Audio Coding 3
Расширение режима : CM (complete main)
Параметр Endianness формата : Big
Идентификатор кодека : A_AC3
Продолжительность : 2 ч. 4 м.
Вид битрейта : Постоянный
Битрейт : 640 Кбит/сек
Каналы : 6 каналов
Расположение каналов : Front: L C R, Side: L R, LFE
Частота : 48,0 КГц
Битовая глубина : 16 бит
Метод сжатия : С потерями
Размер потока : 570 Мбайт (6%)
Заголовок : AVO - Gavrilov
Язык : Russian
Default : Нет
Forced : Нет

Аудио #8
Идентификатор : 9
Формат : AC-3
Формат/Информация : Audio Coding 3
Расширение режима : CM (complete main)
Параметр Endianness формата : Big
Идентификатор кодека : A_AC3
Продолжительность : 2 ч. 4 м.
Вид битрейта : Постоянный
Битрейт : 640 Кбит/сек
Каналы : 6 каналов
Расположение каналов : Front: L C R, Side: L R, LFE
Частота : 48,0 КГц
Битовая глубина : 16 бит
Метод сжатия : С потерями
Размер потока : 570 Мбайт (6%)
Заголовок : AVO - Tolstobrov
Язык : Russian
Default : Нет
Forced : Нет

Аудио #9
Идентификатор : 10
Формат : AC-3
Формат/Информация : Audio Coding 3
Расширение режима : CM (complete main)
Параметр Endianness формата : Big
Идентификатор кодека : A_AC3
Продолжительность : 2 ч. 4 м.
Вид битрейта : Постоянный
Битрейт : 640 Кбит/сек
Каналы : 6 каналов
Расположение каналов : Front: L C R, Side: L R, LFE
Частота : 48,0 КГц
Битовая глубина : 16 бит
Метод сжатия : С потерями
Размер потока : 570 Мбайт (6%)
Заголовок : AVO - Ryabov
Язык : Russian
Default : Нет
Forced : Нет

Аудио #10
Идентификатор : 11
Формат : AC-3
Формат/Информация : Audio Coding 3
Расширение режима : CM (complete main)
Параметр Endianness формата : Big
Идентификатор кодека : A_AC3
Продолжительность : 2 ч. 4 м.
Вид битрейта : Постоянный
Битрейт : 640 Кбит/сек
Каналы : 6 каналов
Расположение каналов : Front: L C R, Side: L R, LFE
Частота : 48,0 КГц
Битовая глубина : 16 бит
Метод сжатия : С потерями
Размер потока : 570 Мбайт (6%)
Заголовок : AVO - Rudoi
Язык : Russian
Default : Нет
Forced : Нет

Аудио #11
Идентификатор : 12
Формат : AC-3
Формат/Информация : Audio Coding 3
Расширение режима : CM (complete main)
Параметр Endianness формата : Big
Идентификатор кодека : A_AC3
Продолжительность : 2 ч. 4 м.
Вид битрейта : Постоянный
Битрейт : 640 Кбит/сек
Каналы : 6 каналов
Расположение каналов : Front: L C R, Side: L R, LFE
Частота : 48,0 КГц
Битовая глубина : 16 бит
Метод сжатия : С потерями
Размер потока : 570 Мбайт (6%)
Язык : Japanese
Default : Нет
Forced : Нет

Аудио #12
Идентификатор : 13
Формат : AC-3
Формат/Информация : Audio Coding 3
Расширение режима : CM (complete main)
Параметр Endianness формата : Big
Идентификатор кодека : A_AC3
Продолжительность : 2 ч. 4 м.
Вид битрейта : Постоянный
Битрейт : 192 Кбит/сек
Каналы : 2 канала
Расположение каналов : Front: L R
Частота : 48,0 КГц
Битовая глубина : 16 бит
Метод сжатия : С потерями
Размер потока : 171 Мбайт (2%)
Заголовок : MVO - TET
Язык : Ukrainian
Default : Нет
Forced : Нет

Аудио #13
Идентификатор : 14
Формат : AC-3
Формат/Информация : Audio Coding 3
Расширение режима : CM (complete main)
Параметр Endianness формата : Big
Идентификатор кодека : A_AC3
Продолжительность : 2 ч. 4 м.
Вид битрейта : Постоянный
Битрейт : 192 Кбит/сек
Каналы : 2 канала
Расположение каналов : Front: L R
Частота : 48,0 КГц
Битовая глубина : 16 бит
Метод сжатия : С потерями
Размер потока : 171 Мбайт (2%)
Заголовок : MVO - AnimEx, AniFilm, UkrDub
Язык : Ukrainian
Default : Нет
Forced : Нет

Аудио #14
Идентификатор : 15
Формат : AC-3
Формат/Информация : Audio Coding 3
Расширение режима : CM (complete main)
Параметр Endianness формата : Big
Идентификатор кодека : A_AC3
Продолжительность : 2 ч. 4 м.
Вид битрейта : Постоянный
Битрейт : 448 Кбит/сек
Каналы : 6 каналов
Расположение каналов : Front: L C R, Side: L R, LFE
Частота : 48,0 КГц
Битовая глубина : 16 бит
Метод сжатия : С потерями
Размер потока : 399 Мбайт (4%)
Заголовок : Dub
Язык : English
Default : Нет
Forced : Нет

Текст #1
Идентификатор : 16
Формат : UTF-8
Идентификатор кодека : S_TEXT/UTF8
Идентификатор кодека/Информация : UTF-8 Plain Text
Язык : Russian
Default : Нет
Forced : Нет

Текст #2
Идентификатор : 17
Формат : UTF-8
Идентификатор кодека : S_TEXT/UTF8
Идентификатор кодека/Информация : UTF-8 Plain Text
Язык : Ukrainian
Default : Нет
Forced : Нет

Текст #3
Идентификатор : 18
Формат : UTF-8
Идентификатор кодека : S_TEXT/UTF8
Идентификатор кодека/Информация : UTF-8 Plain Text
Язык : English
Default : Нет
Forced : Нет

Текст #4
Идентификатор : 19
Формат : UTF-8
Идентификатор кодека : S_TEXT/UTF8
Идентификатор кодека/Информация : UTF-8 Plain Text
Язык : Japanese
Default : Нет
Forced : Нет

Меню
00:00:00.000 : en:00:00:00.000
00:01:39.099 : en:00:01:39.099
00:03:16.238 : en:00:03:16.238
00:07:23.526 : en:00:07:23.526
00:10:45.395 : en:00:10:45.395
00:17:03.022 : en:00:17:03.022
00:22:48.534 : en:00:22:48.534
00:28:36.048 : en:00:28:36.048
00:33:28.173 : en:00:33:28.173
00:38:21.674 : en:00:38:21.674
00:44:11.816 : en:00:44:11.816
00:48:26.821 : en:00:48:26.821
00:54:31.351 : en:00:54:31.351
01:02:09.017 : en:01:02:09.017
01:08:11.587 : en:01:08:11.587
01:14:36.847 : en:01:14:36.847
01:19:10.579 : en:01:19:10.579
01:25:39.760 : en:01:25:39.760
01:31:18.890 : en:01:31:18.890
01:37:33.806 : en:01:37:33.806
01:45:18.937 : en:01:45:18.937
01:50:25.118 : en:01:50:25.118
01:52:51.098 : en:01:52:51.098
01:55:14.199 : en:01:55:14.199
02:00:53.580 : en:02:00:53.580


Сохранены оригинальные чаптеры с Blu-ray.
Исходник для дорожки №1 взят с DVD R5 CP Digital, за который спасибо gelezny.
В дорожке №2 закадровую озвучку на четыре голоса осуществили актера дубляжа: Алексей Борзунов, Елена Борзунова, Александр Комлев и еще одна актриса, чей голос опознать не удалось. Данная озвучка в сеть выкладывается впервые!
Исходник для дорожки №3 взят с DVD-приложения к журналу DVDXpert, за который спасибо GarfieldX. За помощь в поиске исходника спасибо Zuluz. В центральном канале исходника лежал чистый голос, спасибо издателю! Данная озвучка в сеть выкладывается впервые!
Дорожки №№3-7,9,10 получены наложением чистого голоса, а дорожка №8 наложением выделенного голоса на центр декодированного DTS-HD MA.
За чистые голоса Гаврилова, Рябова спасибо sergey_n. За чистый голос Гланца и Королевой спасибо ресурсу glanz.ru.
За исходники для дорожек №№12,13 и украинские субтитры спасибо ресурсу Hurtom.
Перевод и озвучивание Юрия Сербина осуществлены в рамках совместного проекта HDCLUB (сервис "Озвучивание") и форума Е180. Спонсоры: HDCLUB: evg1976, Beonikol, 8bitman, mmmsoft, alexvrubel, AnryV, zaxxy, tft, Rayan, dotCom, Scaramouche, Andy_Ko. Е180: safreks, phaeton77, Daniel Rock, carnivale, Эдуард, Bilko, Ramis, SilverBeast, Pumamen, vik19662007.
Сборка и сведение звука осуществленна при финансовой поддержке пользователей HDCLUB, и только благодаря им данный релиз состоялся! Спонсоры: tambov68, muha, Олег_Роде, Confidence, ultrajeka, hardkatok, vilych, zaxxy, rgv, Sauron, Beonikol, Kenzojapan.
За работу над субтитрами спасибо zaxxy. Русские и украинские субтитры были по-фразно синхронизированы под оригинал с блюрея, также были исправлены грамматические ошибки и пунктуация. Ни один из шести существующих фансаберских вариантов русских субтитров (CaH4e3 & Centaur, CaH4e3, Kon, Toph, А.Панина & С.Бобылев, А.Панина), некоторые из которых идентичны, не были включены в релиз, т.к. перевод в них сильно уступает в качестве официальному от "Невафильм", а местами просто повторяет его. В английских субтитрах с блюрея исправлен тайминг, в котором был небольшой рассинхрон.
http://tapochek.net/viewtopic.php?t=81218 тут BDRip 720p там HDTVRip 1080p
http://tapochek.net/viewtopic.php?t=69384 тут BDRip там DVDRip
http://tapochek.net/viewtopic.php?t=18855 тут BDRip там DVDRip
info [Профиль]  [ЛС] 

feronas

Пол: Пол:Муж

Стаж: 5 лет 5 месяцев

Сообщений: 103

Россия
Рейтинг

post 25-Июл-2014 20:28 (спустя 2 дня 22 часа) [-]1[+]

[Цитировать] 

Мульт легенда!!!!! Спасибо Хаяо Миядзаки
info [Профиль]  [ЛС] 

monteki92

Пол: Пол:Муж

Стаж: 4 года 7 месяцев

Сообщений: 326

Предупреждений: 1

Рейтинг

post 25-Июл-2014 21:19 (спустя 50 минут) [-]0[+]

[Цитировать] 

какое же оно обалденное! Одно из лучшего, что я смотрел в жизни, считая и фильмы, и мульты, и аниме.

_________________
Если школьницам не продают бухло и сигареты,
Я беру свой паспорт и спешу на помощь этим детям.
Пейте, леди, пока не видят мама и папа,
И где же был Тесак, пока я их лапал?
info [Профиль]  [ЛС] 

AFILEXO

Пол: Пол:Муж

Стаж: 7 лет 1 месяц

Сообщений: 523

Россия
Рейтинг

post 25-Июл-2014 22:04 (спустя 45 минут) [-]0[+]

[Цитировать] 

мультфильм который действительно меня поразил.После его просмотра стал искать качественные и добрые анимашки. Лучше Миядзаки и студии "Гибли" никто не умеет.
info [Профиль]  [ЛС] 

pipka

Стаж: 7 лет 5 месяцев

Сообщений: 247

Рейтинг

post 25-Июл-2014 23:56 (спустя 1 час 52 минуты) [-]-2[+]

[Цитировать] 

Шедевр японской анимации!
info [Профиль]  [ЛС] 

SonicPaul

Пол: Пол:Муж

Стаж: 6 лет 9 месяцев

Сообщений: 165

Япония
Рейтинг

post 26-Июл-2014 13:05 (спустя 13 часов) [-]0[+]

[Цитировать] 

Качаю. Этот мультфильм поправу считаеться шедевром мировой мультипликации...
info [Профиль]  [ЛС] 

MaximumPain123

Пол: Пол:Жен

Стаж: 2 года

Сообщений: 6

Россия
Рейтинг

post 12-Апр-2016 09:53 (спустя 1 год 8 месяцев) [-]0[+]

[Цитировать] 

дайте скорости пожалуйста!
info [Профиль]  [ЛС] 
Показать сообщения:    
Ответить на тему

Текущее время: 11-Дек 15:59

Часовой пояс: GMT + 4



Вы не можете начинать темы
Вы не можете отвечать на сообщения
Вы не можете редактировать свои сообщения
Вы не можете удалять свои сообщения
Вы не можете голосовать в опросах
Вы не можете прикреплять файлы к сообщениям
Вы не можете скачивать файлы