Ошибка

Не Играл Не Жил / Нет Игры Нет Жизни / Игра На Выживание / No Game No Life [TV] [1-12 из 12] [2014] [приключения, комедия, фэнтези, пародия] [HDTVRip] [720p] [Профессиональный]

Ответить на тему
 
Автор Сообщение

NovA_JKE

Пол: Пол:Жен

Стаж: 6 лет 9 месяцев

Сообщений: 413

Антарктида
Рейтинг

post 22-Июл-2014 03:04 43[+]

[Цитировать] 

pic="http://savepic.ru/5435873.png"


Не Играл Не Жил | Нет Игры Нет Жизни | Игра На Выживание | No Game No Life

Год выпуска: 2014
Страна: Япония
Жанр: приключения, комедия, фэнтези, пародия
Тип: ТВ
Продолжительность: 12 эп. x 25 мин.
Студия:
Режиссеры: Исидзука Ацуко, Икэхата Такаси, Хосокава Хидэки, Накамура Тикаё, Сасаки Сумито, Ватанабэ Котоно, Инаба Томоки, Симидзу Акира, Аоки Хироясу, Сирайси Митита
Автор оригинала: Камия Ю
Релиз: студия Kansai
Перевод: Руслан Тарасов
Роли озвучивали: Александра Матвеева, Иван Чабан, Анастасия Филиппова, Елизавета Захарьева, Артём Николаев


Описание: Просторы Интернета сотрясает легенда о грозных непобедимых геймерах, таинственной группировке "Пробел". Кто же они? Ответ прост - брат и сестра, обычные школьники, не высовывающие носа из-за компьютера и перепутавшие день с ночью. Ребята доверяют только друг другу и ненавидят жизнь, которую навязывает всем общество. Но что, если есть мир, где жизнь идёт по их правилам? Где все вопросы решаются... в игре?
Дополнительная информация: aniDB | World Art | MAL
Качество: HDTV
Формат: mp4
Видео: h.264; 8 bit; 1280x720; 23,976 fps; ~2093 kbps
Аудио:
  1. RU: AAC-LC 2.0, 48 kHz, ~192 kbps
Субтитры: нет
  1. Старт
  2. Вызов брошен.
  3. Профессионал.
  4. Гроссмейстер.
  5. Слабая позиция.
  6. Любопытство.
  7. Жертва.
  8. Фальшивая концовка.
  9. Прогулка по небу.
  10. Голубая роза.
  11. Гигант убийца.
  12. Десятое правило.

Код:

Общее
Полное имя                               : O:\NovA_JKE\Аниме\No Game No Life (Не Играл Не Жил) [HDTV, Студия Kansai]\NO GAME NO LIFE - 02 [ 1280x720 ] KANSAI.mp4
Формат                                   : MPEG-4
Профиль формата                          : Base Media
Идентификатор кодека                     : isom
Размер файла                             : 393 Мбайт
Продолжительность                        : 24 м.
Режим общего битрейта                    : Переменный
Общий поток                              : 2289 Кбит/сек
Дата кодирования                         : UTC 2014-05-05 23:30:50
Дата пометки                             : UTC 2014-05-05 23:30:50
Программа кодирования                    : Yamb 2.1.0.0 [http://yamb.unite-video.com]

Видео
Идентификатор                            : 1
Формат                                   : AVC
Формат/Информация                        : Advanced Video Codec
Профиль формата                          : High@L4.1
Параметр CABAC формата                   : Да
Параметр ReFrames формата                : 4 кадра
Идентификатор кодека                     : avc1
Идентификатор кодека/Информация          : Advanced Video Coding
Продолжительность                        : 24 м.
Битрейт                                  : 2093 Кбит/сек
Максимальный битрейт                     : 9974 Кбит/сек
Ширина                                   : 1280 пикселей
Высота                                   : 720 пикселей
Соотношение сторон                       : 16:9
Режим частоты кадров                     : Постоянный
Частота кадров                           : 23,976 кадра/сек
Цветовое пространство                    : YUV
Субдискретизация насыщенности            : 4:2:0
Битовая глубина                          : 8 бит
Тип развёртки                            : Прогрессивная
Бит/(Пиксели*Кадры)                      : 0.095
Размер потока                            : 360 Мбайт (91%)
Заголовок                                : 264
Библиотека кодирования                   : x264 core 129 r2245+729M 1a52e03
Настройки программы                      : cabac=1 / ref=4 / deblock=1:1:-1 / analyse=0x3:0x113 / me=umh / subme=9 / psy=1 / fade_compensate=0.00 / psy_rd=1.00:0.00 / mixed_ref=1 / me_range=24 / chroma_me=1 / trellis=2 / 8x8dct=1 / cqm=0 / deadzone=21,11 / fast_pskip=1 / chroma_qp_offset=-2 / threads=8 / lookahead_threads=1 / sliced_threads=0 / nr=0 / decimate=1 / interlaced=0 / bluray_compat=0 / constrained_intra=0 / fgo=0 / bframes=9 / b_pyramid=2 / b_adapt=2 / b_bias=0 / direct=1 / weightb=1 / open_gop=0 / weightp=2 / keyint=240 / keyint_min=24 / scenecut=40 / intra_refresh=0 / rc=crf / mbtree=0 / crf=19.0 / qcomp=0.72 / qpmin=0 / qpmax=69 / qpstep=4 / ip_ratio=1.40 / pb_ratio=1.30 / aq=1:0.85
Дата кодирования                         : UTC 2014-04-16 15:13:49
Дата пометки                             : UTC 2014-05-05 23:30:59
Основные цвета                           : BT.709
Характеристики трансфера                 : BT.709
Коэффициенты матрицы                     : BT.709

Аудио
Идентификатор                            : 2
Формат                                   : AAC
Формат/Информация                        : Advanced Audio Codec
Профиль формата                          : LC
Идентификатор кодека                     : 40
Продолжительность                        : 24 м.
Вид битрейта                             : Переменный
Битрейт                                  : 192 Кбит/сек
Максимальный битрейт                     : 198 Кбит/сек
Каналы                                   : 2 канала
Расположение каналов                     : Front: L R
Частота                                  : 48,0 КГц
Метод сжатия                             : С потерями
Размер потока                            : 33,0 Мбайт (8%)
Заголовок                                : Kansai
Язык                                     : Russian
Дата кодирования                         : UTC 2014-05-05 23:30:59
Дата пометки                             : UTC 2014-05-05 23:30:59
info [Профиль]  [ЛС] 

Sinael

Стаж: 6 лет 2 месяца

Сообщений: 259

Рейтинг

post 22-Июл-2014 18:56 (спустя 15 часов) [-]0[+]

[Цитировать] 

Лучший мульт сезона.
info [Профиль]  [ЛС] 

andaks

Стаж: 6 лет 7 месяцев

Сообщений: 51

Рейтинг

post 22-Июл-2014 20:12 (спустя 1 час 15 минут) [-]0[+]

[Цитировать] 

аще ништяк
info [Профиль]  [ЛС] 

Genesis13

Стаж: 5 лет 4 месяца

Сообщений: 43

Казахстан
Рейтинг

post 23-Июл-2014 02:38 (спустя 6 часов) [-]42[+]

[Цитировать] 

Офигенное аниме, почти каждая серия до мурашек пробирает.
info [Профиль]  [ЛС] 
Показать сообщения:    
Ответить на тему

Текущее время: 04-Дек 10:11

Часовой пояс: GMT + 4



Вы не можете начинать темы
Вы не можете отвечать на сообщения
Вы не можете редактировать свои сообщения
Вы не можете удалять свои сообщения
Вы не можете голосовать в опросах
Вы не можете прикреплять файлы к сообщениям
Вы не можете скачивать файлы