Ошибка

Need for Speed: Жажда скорости / Need for Speed (Скотт Во) [2014 г., боевик, триллер, драма, криминал, BDRemux 1080p]

Ответить на тему
 
Автор Сообщение

Basketballman

Пол: Пол:Муж

Стаж: 7 лет 1 месяц

Сообщений: 280

Россия
Рейтинг

post 18-Июл-2014 02:15 3[+]

[Цитировать] 

Need for Speed: Жажда скорости / Need for Speed

Год выпуска: 2014
Страна: США, Филиппины, Ирландия, Великобритания
Жанр: боевик, триллер, драма, криминал
Продолжительность: 02:10:42
Перевод: профессиональный (полное дублирование) [лицензия]
Субтитры: русские, английские
Режиссер:
  • Скотт Во
В ролях:
  • Аарон Пол, Доминик Купер, Имоджен Путс, Дакота Джонсон, Майкл Китон, Рамон Родригес, Ник Чинланд, Кид Кади, Рэми Малек

Описание: История Тоби Маршалла, гениального автомеханика, чьей единственной отдушиной является участие в подпольных гонках. Чтобы сохранить семейную мастерскую, Тоби вынужден взять в партнеры богатого и заносчивого бывшего гонщика NASCAR Дино Брюстера. Когда дела Тоби наконец-то начинают идти в гору, Дино подставляет партнера, и Тоби обвиняют в преступлении, которого он не совершал. Спустя два года Тоби выходит из тюрьмы с мыслью о мести. Чтобы достичь своей цели, ему придется совершить невозможное и доказать, что даже в мире броских суперкаров самый невзрачный гонщик может финишировать первым.


Качество: BDRemux 1080p
Формат: MKV
Видео кодек: MPEG-4
Аудио кодек: AC3, DTS-HD
Видео: 1920x1080, 23.976 fps, 29.5 Mбит/с
Аудио 1: Russian: AC3, 6 ch, 640 Kbps
Аудио 2: English: DTS-HD MA, 8 ch, 5228 Kbps
Аудио 3: English: AC3, 2 ch, 320 Kbps (Deive)
Аудио 4: English: AC3, 2 ch, 192 Kbps (Commentary)
Субтитры: SRT

Sample
General
Unique ID : 242387279329315778303240206617055853685 (0xB65A17895F5D3FA094DAFAD3F6EBFC75)
Complete name : D:\Кино\Need for Speed BDRemux.mkv
Format : Matroska
Format version : Version 2
File size : 32.5 GiB
Duration : 2h 10mn
Overall bit rate mode : Variable
Overall bit rate : 35.6 Mbps
Movie name : Need for Speed (2014) / Lelya_K for NNM-Club
Encoded date : UTC 2014-07-17 00:07:36
Writing application : mkvmerge v5.7.0 ('The Whirlwind') built on Aug 7 2012 14:11:40
Writing library : libebml v1.2.3 + libmatroska v1.3.0
Attachment : Yes

Video
ID : 1
Format : AVC
Format/Info : Advanced Video Codec
Format profile : High@L4.1
Format settings, CABAC : Yes
Format settings, ReFrames : 4 frames
Codec ID : V_MPEG4/ISO/AVC
Duration : 2h 10mn
Bit rate mode : Variable
Maximum bit rate : 32.0 Mbps
Width : 1 920 pixels
Height : 1 080 pixels
Display aspect ratio : 16:9
Frame rate mode : Constant
Frame rate : 23.976 fps
Color space : YUV
Chroma subsampling : 4:2:0
Bit depth : 8 bits
Scan type : Progressive
Title : Need.for.Speed.Жажда.скорости-Need.for.Speed.(2014).BDRemux.[1080p]
Language : English
Default : Yes
Forced : No

Audio #1
ID : 2
Format : AC-3
Format/Info : Audio Coding 3
Mode extension : CM (complete main)
Format settings, Endianness : Big
Codec ID : A_AC3
Duration : 2h 10mn
Bit rate mode : Constant
Bit rate : 640 Kbps
Channel count : 6 channels
Channel positions : Front: L C R, Side: L R, LFE
Sampling rate : 48.0 KHz
Bit depth : 16 bits
Compression mode : Lossy
Stream size : 599 MiB (2%)
Title : AC3 5.1 / 640 kbps / Dub (Blu-ray 3D EUR)
Language : Russian
Default : Yes
Forced : No

Audio #2
ID : 3
Format : DTS
Format/Info : Digital Theater Systems
Format profile : MA / Core
Mode : 16
Format settings, Endianness : Big
Codec ID : A_DTS
Duration : 2h 10mn
Bit rate mode : Variable
Bit rate : Unknown / 1 509 Kbps
Channel count : 8 channels / 6 channels
Channel positions : Front: L C R, Side: L R, Back: L R, LFE / Front: L C R, Side: L R, LFE
Sampling rate : 48.0 KHz
Bit depth : 24 bits
Compression mode : Lossless / Lossy
Title : DTS-HD MA 7.1 / 5228 kbps / Original
Language : English
Default : No
Forced : No

Audio #3
ID : 4
Format : AC-3
Format/Info : Audio Coding 3
Format profile : Dolby Digital
Mode extension : CM (complete main)
Format settings, Endianness : Big
Codec ID : A_AC3
Duration : 2h 10mn
Bit rate mode : Constant
Bit rate : 320 Kbps
Channel count : 2 channels
Channel positions : Front: L R
Sampling rate : 48.0 KHz
Bit depth : 16 bits
Compression mode : Lossy
Stream size : 300 MiB (1%)
Title : AC3 2.0 / 320 kbps / Descriptive
Language : English
Default : No
Forced : No

Audio #4
ID : 5
Format : AC-3
Format/Info : Audio Coding 3
Mode extension : CM (complete main)
Format settings, Endianness : Big
Codec ID : A_AC3
Duration : 2h 10mn
Bit rate mode : Constant
Bit rate : 192 Kbps
Channel count : 2 channels
Channel positions : Front: L R
Sampling rate : 48.0 KHz
Bit depth : 16 bits
Compression mode : Lossy
Stream size : 180 MiB (1%)
Title : AC3 2.0 / 192 kbps / Commentary
Language : English
Default : No
Forced : No

Text #1
ID : 6
Format : UTF-8
Codec ID : S_TEXT/UTF8
Codec ID/Info : UTF-8 Plain Text
Title : Forced
Language : Russian
Default : Yes
Forced : No

Text #2
ID : 7
Format : UTF-8
Codec ID : S_TEXT/UTF8
Codec ID/Info : UTF-8 Plain Text
Title : Full
Language : Russian
Default : No
Forced : No

Text #3
ID : 8
Format : UTF-8
Codec ID : S_TEXT/UTF8
Codec ID/Info : UTF-8 Plain Text
Title : Full
Language : English
Default : No
Forced : No

Menu
00:00:00.000 : en:Chapter 1
00:03:54.734 : en:Chapter 2
00:07:49.760 : en:Chapter 3
00:14:28.033 : en:Chapter 4
00:20:43.533 : en:Chapter 5
00:26:18.159 : en:Chapter 6
00:28:45.974 : en:Chapter 7
00:37:46.472 : en:Chapter 8
00:42:07.608 : en:Chapter 9
00:50:33.613 : en:Chapter 10
00:56:00.482 : en:Chapter 11
01:05:09.864 : en:Chapter 12
01:12:09.325 : en:Chapter 13
01:18:21.029 : en:Chapter 14
01:25:07.143 : en:Chapter 15
01:32:55.653 : en:Chapter 16
01:36:38.083 : en:Chapter 17
01:39:49.441 : en:Chapter 18
01:49:47.872 : en:Chapter 19
01:55:41.684 : en:Chapter 20
02:02:22.752 : en:Chapter 21
info [Профиль]  [ЛС] 

sanchesss8

Пол: Пол:Муж

Стаж: 2 года 7 месяцев

Сообщений: 23

Россия
Рейтинг

post 18-Июл-2014 13:41 (спустя 11 часов) [-]0[+]

[Цитировать] 

дайте скоростухи)
info [Профиль]  [ЛС] 

AndreyTNT

Пол: Пол:Муж

Стаж: 7 лет 3 месяца

Сообщений: 19

Рейтинг

post 18-Июл-2014 18:49 (спустя 5 часов) [-]3[+]

[Цитировать] 

Ох тыш ёпт, очень ждал, спасибо!

UPDATE: Клёвый фильмец.
info [Профиль]  [ЛС] 

Ян

Пол: Пол:Муж

Стаж: 5 лет 2 месяца

Сообщений: 330

Россия
Рейтинг

post 28-Июл-2014 22:37 (спустя 10 дней) [-]1[+]

[Цитировать] 

Хорошее кино на один хороший вечер. Смотрится хорошо, и до конца.

_________________
info [Профиль]  [ЛС] 

post 14-Сен-2014 10:36 (спустя 1 месяц 16 дней) [-]0[+]

Топик был перенесен из форума Новинки 2013-2014 (DVD, HD DVD, Blu-ray, HD Rips, Web-DL) в форум Зарубежное кино | HD DVD и Blu-ray

L
 

berkyt

Пол: Пол:Муж

Стаж: 6 лет 6 месяцев

Сообщений: 2

Россия
Рейтинг

post 26-Дек-2014 21:09 (спустя 4 месяца 28 дней) [-]0[+]

[Цитировать] 

Ребята - вернитесь! Нужно скачать - вечер свободный!!!
info [Профиль]  [ЛС] 

Dysphoria228

Стаж: 2 года

Сообщений: 5

Россия
Рейтинг

post 06-Фев-2015 19:57 (спустя 1 месяц 10 дней) [-]0[+]

[Цитировать] 

Куда такой размер то? Этот же фильм в 60фпс на 20гб меньше весит.
info [Профиль]  [ЛС] 
Показать сообщения:    
Ответить на тему

Текущее время: 03-Дек 00:04

Часовой пояс: GMT + 4



Вы не можете начинать темы
Вы не можете отвечать на сообщения
Вы не можете редактировать свои сообщения
Вы не можете удалять свои сообщения
Вы не можете голосовать в опросах
Вы не можете прикреплять файлы к сообщениям
Вы не можете скачивать файлы