Ошибка

Пират бешеный Джек / Mad Jack the Pirate / 1 сезон / 13 серий (Джефф ДеГрандис / Jeff DeGrandis )[1998-1999г, Мультфильм, комедия SATRip] DUB

Ответить на тему
 
Автор Сообщение

Noldor

Стаж: 4 года 11 месяцев

Сообщений: 1229

Рейтинг

post 13-Июл-2014 14:41 0[+]

[Цитировать] 

pic="http://i66.fastpic.ru/big/2014/0713/74/a73ba6c69ef18098abca0bd11c713774.jpg"
Пират бешеный Джек / Mad Jack the Pirate
«Только не заплывай за край света!»


  • Год выпуска: 1998-1999
  • Страна: США
  • Жанр: Мультфильм, комедия
  • Продолжительность: ~00:20:00
  • Перевод: Профессиональный (дублированный)
  • Субтитры: Отсутствуют
  • Режиссёр: Джефф ДеГрандис / Jeff DeGrandis

  • Озвучивали:
    Вадим Гущин, Елена Павловская, Владимир Маслаков, Алексей Гурьев


  • Бешеный пират по имени Джек, пытаясь нечестным путём завладеть большой суммой денег, угождает в башню под стражу. Там неудачливый Джек знакомится с крысой по имени Снак. Пробыв в заточении не столь долго, Джек совершает попытку бегства, но совесть не позволяет ему уйти одному, поэтому он берет Снака с собой. Вот тут-то и начинаются их бесконечные и довольно весёлые приключения.

    Вскоре после удачного побега бешеный пират нанимает Снака к себе на корабль не кем-то, а старшим помощником. Пытаясь заработать на всём, что даёт такую возможность, Джек и его верный друг постоянно оказываются в сложных ситуациях. Поскольку сам Джек попросту не может говорить правду, Снак, несмотря на то, что он крыса, ведет себя крайне честно и никогда не лжет. С каждым новым путешествием подобные ситуации становятся всё сложнее, но, как несложно догадаться, всегда заканчиваются благополучно.


   

   

  • Качество: SATRip
  • Формат: AVI
  • Видео: XVID 640 x 480 , 25.000 fps MPEG-4 Visual at ~ 1900 Кбит/сек
  • Аудио №1: 192 кбит/сек, 48000Hz, AC3 2.0



01. Жуткий случай с женитьбой и ведьмами
02. Проклятье голубого горбункула
03. Остров Зёрзин, Флибис, Кряк и лекарство + Рыцарь и принцесса
04. Привидение Энгеса Дагнаббита + Свет, камера, Снак!
05. День рождения + Кораблекрушение
06. Ужасный Драклия
07. Сокровища безмозглого, замшелого, криворукого торгаша + 999 Удовольствий
08. Неприятный инцедент со снежными троллями + Знакомство с крабами
09. Джек - победитель драконов + Капитан Снак
10. Остров розовой нежности + Дядющка Мортимер
11. Великий вулкан + Снак находится в розыске
12. Проклятые сокровища миссис Гранъен + Волшебная лампа
13. Бешенный Джек и великан + Похищение пальца мумии
General
Complete name : G:\Пират бешеный Джек Mad Jack the Pirate Sat-rip rus\Mad Jack the Pirate.01.avi
Format : AVI
Format/Info : Audio Video Interleave
File size : 294 MiB
Duration : 20mn 31s
Overall bit rate : 2 001 Kbps
Writing application : VirtualDubMod 1.5.10.3 | www.virtualdub-fr.org || (build 2550/release)
Writing library : VirtualDubMod build 2550/release

Video
ID : 0
Format : MPEG-4 Visual
Format profile : Advanced Simple@L5
Format settings, BVOP : Yes
Format settings, QPel : No
Format settings, GMC : No warppoints
Format settings, Matrix : Default (H.263)
Codec ID : XVID
Codec ID/Hint : XviD
Duration : 20mn 31s
Bit rate : 1 800 Kbps
Width : 720 pixels
Height : 576 pixels
Display aspect ratio : 4:3
Frame rate : 25.000 fps
Standard : PAL
Color space : YUV
Chroma subsampling : 4:2:0
Bit depth : 8 bits
Scan type : Progressive
Compression mode : Lossy
Bits/(Pixel*Frame) : 0.174
Stream size : 264 MiB (90%)
Writing library : XviD 1.2.1 (UTC 2008-12-04)

Audio
ID : 1
Format : AC-3
Format/Info : Audio Coding 3
Mode extension : CM (complete main)
Format settings, Endianness : Big
Codec ID : 2000
Duration : 20mn 31s
Bit rate mode : Constant
Bit rate : 192 Kbps
Channel count : 2 channels
Channel positions : Front: L R
Sampling rate : 48.0 KHz
Bit depth : 16 bits
Compression mode : Lossy
Stream size : 28.2 MiB (10%)
Alignment : Split accross interleaves
Interleave, duration : 40 ms (1.00 video frame)
Interleave, preload duration : 500 ms



    info [Профиль]  [ЛС] 

    chelentano81

    Пол: Пол:Муж

    Стаж: 6 лет 9 месяцев

    Сообщений: 32

    Украина
    Рейтинг

    post 13-Июл-2014 15:12 (спустя 31 минута) [-]0[+]

    [Цитировать] 

    Жаль один сезон .
    info [Профиль]  [ЛС] 

    HalyaziuM

    Пол: Пол:Муж

    Стаж: 6 лет 7 месяцев

    Сообщений: 45

    СССР
    Рейтинг

    post 13-Июл-2014 15:18 (спустя 6 минут) [-]0[+]

    [Цитировать] 

    Качество лучше чем было на рутрекере, спасибо. Некоторые серии действительно доставляют.
    info [Профиль]  [ЛС] 

    La_Coka

    Пол: Пол:Муж

    Стаж: 3 года 10 месяцев

    Сообщений: 143

    Россия
    Рейтинг

    post 13-Июл-2014 19:26 (спустя 4 часа) [-]4[+]

    [Цитировать] 

    Приятно видеть старые, добрые мультики с Fox Kids и Jetix, спасибо огромное!
    info [Профиль]  [ЛС] 

    Creater

    Пол: Пол:Муж

    Стаж: 4 года 1 месяц

    Сообщений: 11

    Предупреждений: 1

    Россия
    Рейтинг

    post 13-Июл-2014 20:57 (спустя 1 час 31 минута) [-]0[+]

    [Цитировать] 

    От этого мульта просто в восторге! Спасибо большое! Сразу ещё вспомнил 1 мультик - про пса, которого пугал мальчик, пёс Пучини или как-то так. Подскажите, где ещё можно взять этот мультфильм?
    info [Профиль]  [ЛС] 

    d_cool

    Пол: Пол:Муж

    Стаж: 4 года 9 месяцев

    Сообщений: 30

    Россия
    Рейтинг

    post 14-Июл-2014 23:23 (спустя 1 день 2 часа) [-]0[+]

    [Цитировать] 

    Ностальгия по детству =)
    info [Профиль]  [ЛС] 
    Показать сообщения:    
    Ответить на тему

    Текущее время: 07-Дек 22:26

    Часовой пояс: GMT + 4



    Вы не можете начинать темы
    Вы не можете отвечать на сообщения
    Вы не можете редактировать свои сообщения
    Вы не можете удалять свои сообщения
    Вы не можете голосовать в опросах
    Вы не можете прикреплять файлы к сообщениям
    Вы не можете скачивать файлы