Ошибка

До окончания фрилича осталось:


Феи: Загадка пиратского острова / Tinker Bell and the Pirate Fairy (Пегги Холмс) [2014 г., мультфильм, фэнтези, детский, BDRip 720р]

Ответить на тему
 
Автор Сообщение

Beonikol

Пол: Пол:Муж

Стаж: 6 лет 11 месяцев

Сообщений: 202

Украина
Рейтинг

post 05-Июл-2014 19:51 0[+]

[Цитировать] 

Феи: Загадка пиратского острова / Tinker Bell and the Pirate Fairy

Год выпуска: 2014
Страна: США
Жанр: мультфильм, фэнтези, детский
Продолжительность: 01:18:05
Перевод: Профессиональный (полное дублирование) |Дубляж, Blu-ray|
Язык субтитров: Russian (Forced, iTunes), Russian (iTunes), English (Forced, iTunes), English (iTunes)
Режиссер:
  • Пегги Холмс

В ролях:
  • Кристина Хендрикс, Мэй Уитман, Том Хиддлстон, Памела Адлон, Анджела Бартис, Меган Хилти, Люси Лью, Рэйвен, Джим Каммингс, Кевин Майкл Ричардсон

Описание: История о Зарине, смышленой и амбициозной фее, собирающей пыльцу растений. Все начинается с того, что она похищает волшебную пыльцу фей…

Качество: Blu-ray Rip
Формат: MKV
Видео кодек: H.264
Аудио кодек: AC3
Видео: 1280x720 at 23.976 fps, x264@L4.1, CRF16, ~5865 kbps avg
Аудио 1: Russian: 48 kHz, AC3, 3/2 (L,C,R,l,r) + LFE ch, ~640.00 kbps avg |Дубляж, Blu-ray|
Аудио 2: English: 48 kHz, DTS, 3/2 (L,C,R,l,r) + LFE ch, ~1536.00 kbps avg
Аудио 3: English: 48 kHz, AC3, 2/0 (L,R) ch, ~320.00 kbps avg |Descriptive|
Релиз от:

Общее
Уникальный идентификатор : 170319854734180287601530833303276275986 (0x8022692C8601F0DC817625EA1FDEC912)
Полное имя : E:\The.Pirate.Fairy.2014.720p.BluRay.Rus.2xEng.HDCLUB.mkv
Формат : Matroska
Версия формата : Version 2
Размер файла : 4,55 Гбайт
Продолжительность : 1 ч. 18 м.
Общий поток : 8338 Кбит/сек
Название фильма : Tinker Bell and the Pirate Fairy (2014) - Release for HDCLUB
Дата кодирования : UTC 2014-05-10 15:07:01
Программа кодирования : mkvmerge v3.4.0 ('Rapunzel') built on May 15 2010 09:38:20
Библиотека кодирования : libebml v0.8.0 + libmatroska v0.9.0

Видео
Идентификатор : 1
Формат : AVC
Формат/Информация : Advanced Video Codec
Профиль формата : High@L4.1
Параметр CABAC формата : Да
Параметр ReFrames формата : 9 кадров
Идентификатор кодека : V_MPEG4/ISO/AVC
Продолжительность : 1 ч. 18 м.
Битрейт : 5703 Кбит/сек
Ширина : 1280 пикселей
Высота : 720 пикселей
Соотношение сторон : 16:9
Режим частоты кадров : Постоянный
Частота кадров : 23,976 кадра/сек
Цветовое пространство : YUV
Субдискретизация насыщенности : 4:2:0
Битовая глубина : 8 бит
Тип развёртки : Прогрессивная
Бит/(Пиксели*Кадры) : 0.258
Размер потока : 3,11 Гбайт (68%)
Заголовок : Tinker Bell and the Pirate Fairy (2014) - Release for HDCLUB
Библиотека кодирования : x264 core 142 r2409kMod d6b4e63
Настройки программы : cabac=1 / ref=9 / deblock=1:-3:-3 / analyse=0x3:0x133 / me=umh / subme=10 / psy=1 / fade_compensate=0.00 / psy_rd=1.05:0.00 / mixed_ref=1 / me_range=16 / chroma_me=1 / trellis=2 / 8x8dct=1 / cqm=0 / deadzone=21,11 / fast_pskip=0 / chroma_qp_offset=-2 / threads=6 / lookahead_threads=1 / sliced_threads=0 / nr=0 / decimate=0 / interlaced=0 / bluray_compat=0 / constrained_intra=0 / fgo=0 / bframes=8 / b_pyramid=2 / b_adapt=2 / b_bias=0 / direct=3 / weightb=1 / open_gop=0 / weightp=2 / keyint=250 / keyint_min=23 / scenecut=40 / intra_refresh=0 / rc_lookahead=60 / rc=crf / mbtree=0 / crf=16.0000 / qcomp=0.80 / qpmin=0 / qpmax=69 / qpstep=4 / vbv_maxrate=20000 / vbv_bufsize=15000 / crf_max=0.0 / nal_hrd=none / filler=0 / ip_ratio=1.20 / pb_ratio=1.10 / aq=1:0.90
Язык : English
Default : Да
Forced : Нет

Аудио #1
Идентификатор : 2
Формат : AC-3
Формат/Информация : Audio Coding 3
Расширение режима : CM (complete main)
Параметр Endianness формата : Big
Идентификатор кодека : A_AC3
Продолжительность : 1 ч. 18 м.
Вид битрейта : Постоянный
Битрейт : 640 Кбит/сек
Каналы : 6 каналов
Расположение каналов : Front: L C R, Side: L R, LFE
Частота : 48,0 КГц
Битовая глубина : 16 бит
Метод сжатия : С потерями
Размер потока : 357 Мбайт (8%)
Заголовок : AC3 5.1 @ 640 kbps - DUB, Blu-ray
Язык : Russian
Default : Да
Forced : Нет

Аудио #2
Идентификатор : 3
Формат : DTS
Формат/Информация : Digital Theater Systems
Режим : 16
Параметр Endianness формата : Big
Идентификатор кодека : A_DTS
Продолжительность : 1 ч. 18 м.
Вид битрейта : Постоянный
Битрейт : 1509 Кбит/сек
Каналы : 6 каналов
Расположение каналов : Front: L C R, Side: L R, LFE
Частота : 48,0 КГц
Битовая глубина : 24 бит
Метод сжатия : С потерями
Размер потока : 843 Мбайт (18%)
Заголовок : DTS 5.1 @ 1536 kbps
Язык : English
Default : Нет
Forced : Нет

Аудио #3
Идентификатор : 4
Формат : AC-3
Формат/Информация : Audio Coding 3
Профиль формата : Dolby Digital
Расширение режима : CM (complete main)
Параметр Endianness формата : Big
Идентификатор кодека : A_AC3
Продолжительность : 1 ч. 18 м.
Вид битрейта : Постоянный
Битрейт : 320 Кбит/сек
Каналы : 2 канала
Расположение каналов : Front: L R
Частота : 48,0 КГц
Битовая глубина : 16 бит
Метод сжатия : С потерями
Размер потока : 179 Мбайт (4%)
Заголовок : AC3 2.0 @ 320 kbps - Descriptive
Язык : English
Default : Нет
Forced : Нет

Текст #1
Идентификатор : 5
Формат : UTF-8
Идентификатор кодека : S_TEXT/UTF8
Идентификатор кодека/Информация : UTF-8 Plain Text
Заголовок : Forced, iTunes
Язык : Russian
Default : Да
Forced : Нет

Текст #2
Идентификатор : 6
Формат : UTF-8
Идентификатор кодека : S_TEXT/UTF8
Идентификатор кодека/Информация : UTF-8 Plain Text
Заголовок : iTunes
Язык : Russian
Default : Нет
Forced : Нет

Текст #3
Идентификатор : 7
Формат : UTF-8
Идентификатор кодека : S_TEXT/UTF8
Идентификатор кодека/Информация : UTF-8 Plain Text
Заголовок : Forced, iTunes
Язык : English
Default : Нет
Forced : Нет

Текст #4
Идентификатор : 8
Формат : UTF-8
Идентификатор кодека : S_TEXT/UTF8
Идентификатор кодека/Информация : UTF-8 Plain Text
Заголовок : iTunes
Язык : English
Default : Нет
Forced : Нет

Меню
00:00:00.000 : en:Chapter 1
00:04:05.996 : en:Chapter 2
00:07:36.665 : en:Chapter 3
00:14:32.747 : en:Chapter 4
00:20:17.925 : en:Chapter 5
00:28:10.814 : en:Chapter 6
00:33:03.607 : en:Chapter 7
00:40:12.201 : en:Chapter 8
00:45:53.334 : en:Chapter 9
00:53:51.520 : en:Chapter 10
01:03:41.609 : en:Chapter 11
01:08:40.742 : en:Chapter 12

info [Профиль]  [ЛС] 

pontius_pilotus

Пол: Пол:Муж

Стаж: 4 года 11 месяцев

Сообщений: 13

Россия
Рейтинг

post 05-Июл-2014 21:21 (спустя 1 час 29 минут) [-]-3[+]

[Цитировать] 

очень очень детский. Улыбаюсь

_________________
info [Профиль]  [ЛС] 

FreeSanta

Пол: Пол:Муж

Стаж: 4 года 1 месяц

Сообщений: 87

Россия
Рейтинг

post 06-Июл-2014 14:31 (спустя 17 часов) [-]0[+]

[Цитировать] 

Смотрел с дочкой. Смотрели до этого Феи: Тайна зимнего леса. Не сказать что меня сильно завлекло. Но, ребенку понравилось, а это главное. И вот решил посмотреть Загадка пиратского острова. По мне так лучше чем Тайна зимнего леса.

_________________
info [Профиль]  [ЛС] 

post 14-Сен-2014 10:37 (спустя 2 месяца 7 дней) [-]0[+]

Топик был перенесен из форума Новинки 2013-2014 (DVD, HD DVD, Blu-ray, HD Rips, Web-DL) в форум Мультфильмы (HD Video)

L
 
Показать сообщения:    
Ответить на тему

Текущее время: 10-Дек 16:49

Часовой пояс: GMT + 4



Вы не можете начинать темы
Вы не можете отвечать на сообщения
Вы не можете редактировать свои сообщения
Вы не можете удалять свои сообщения
Вы не можете голосовать в опросах
Вы не можете прикреплять файлы к сообщениям
Вы не можете скачивать файлы