Ошибка

Рио 2 / Rio 2 (Карлос Салдана) [2014 г., Мультфильм, комедия, приключения, семейный, BDRip 1080p]

Ответить на тему
 
Автор Сообщение

L

Пол: Пол:Муж

Стаж: 6 лет 7 месяцев

Сообщений: 10779

Украина
Рейтинг

post 01-Июл-2014 08:57 4[+]

[Цитировать] 

Рио 2 / Rio 2
Год выпуска: 2014
Жанр: Мультфильм, комедия, приключения, семейный
Выпущено: США, 20th Century Fox Animation, Blue Sky Studios
Продолжительность: 01:41:57
Озвучивание: Дублированное [iTunes]
Субтитры: Английские, румынские
Режиссер: Карлос Салдана
В ролях: Энн Хэтэуэй, Лесли Манн, Джейми Фокс, Джесси Айзенберг, Родриго Санторо, Энди Гарсиа, Трэйси Морган, Уилл Ай Эм, Джемейн Клемент, Кристин Ченоуэт
Описание:
Блю, Джевел и их трое детей живут счастливой жизнью в волшебном городе Рио-де-Жанейро. Когда Джевел решает, что их детям нужно научиться жить как настоящим птицам, она настаивает на авантюрной поездке в дебри реки Амазонки. Там, пытаясь вписаться в новое окружение, Блю начинает беспокоиться, что может потерять Джевел и детей, идущих на зов дикой природы.

Качество: BDRip 1080p | CHD
Формат: MKV
Видео: MPEG-4 AVC, 9700 Кбит/с, 1920x798
Аудио: Русский (AC3, 6 ch, 384 Кбит/с), английский (DTS, 6 ch, 1510 Кбит/с)
Субтитры: srt

Скачать: Сэмпл
Общее
Уникальный идентификатор : 247990596066566377979788178583596177939 (0xBA9140619704D4FE8434593BB1DE1A13)
Полное имя : D:\!Tapochek.net\!___\Rio.2.2014.BluRay.1080p.x264.Rus.Eng.Subs-CHD.mkv
Формат : Matroska
Версия формата : Version 4 / Version 2
Размер файла : 8,19 Гбайт
Продолжительность : 1 ч. 41 м.
Общий поток : 11,6 Мбит/сек
Дата кодирования : UTC 2014-06-30 19:01:04
Программа кодирования : mkvmerge v6.9.1 ('Blue Panther') 64bit built on Apr 18 2014 18:23:38
Библиотека кодирования : libebml v1.3.0 + libmatroska v1.4.1

Видео
Идентификатор : 1
Формат : AVC
Формат/Информация : Advanced Video Codec
Профиль формата : High@L4.1
Параметр CABAC формата : Да
Параметр ReFrames формата : 5 кадров
Идентификатор кодека : V_MPEG4/ISO/AVC
Продолжительность : 1 ч. 41 м.
Битрейт : 9700 Кбит/сек
Ширина : 1920 пикселей
Высота : 798 пикселей
Соотношение сторон : 2,40:1
Режим частоты кадров : Постоянный
Частота кадров : 23,976 кадра/сек
Цветовое пространство : YUV
Субдискретизация насыщенности : 4:2:0
Битовая глубина : 8 бит
Тип развёртки : Прогрессивная
Бит/(Пиксели*Кадры) : 0.264
Размер потока : 6,69 Гбайт (82%)
Заголовок : hahay0yo@CHD
Библиотека кодирования : x264 core 142 r2431 ac76440
Настройки программы : cabac=1 / ref=5 / deblock=1:-3:-3 / analyse=0x3:0x113 / me=umh / subme=10 / psy=1 / psy_rd=1.00:0.05 / mixed_ref=1 / me_range=32 / chroma_me=1 / trellis=2 / 8x8dct=1 / cqm=0 / deadzone=21,11 / fast_pskip=0 / chroma_qp_offset=-2 / threads=18 / lookahead_threads=1 / sliced_threads=0 / nr=0 / decimate=1 / interlaced=0 / bluray_compat=0 / constrained_intra=0 / bframes=5 / b_pyramid=2 / b_adapt=2 / b_bias=0 / direct=3 / weightb=1 / open_gop=0 / weightp=2 / keyint=250 / keyint_min=23 / scenecut=40 / intra_refresh=0 / rc=2pass / mbtree=0 / bitrate=9700 / ratetol=1.0 / qcomp=0.70 / qpmin=0 / qpmax=69 / qpstep=4 / cplxblur=20.0 / qblur=0.5 / ip_ratio=1.40 / pb_ratio=1.30 / aq=2:0.90
Язык : English
Default : Да
Forced : Нет

Аудио #1
Идентификатор : 2
Формат : AC-3
Формат/Информация : Audio Coding 3
Расширение режима : CM (complete main)
Параметр Endianness формата : Big
Идентификатор кодека : A_AC3
Продолжительность : 1 ч. 41 м.
Вид битрейта : Постоянный
Битрейт : 384 Кбит/сек
Каналы : 6 каналов
Расположение каналов : Front: L C R, Side: L R, LFE
Частота : 48,0 КГц
Битовая глубина : 16 бит
Метод сжатия : С потерями
Размер потока : 278 Мбайт (3%)
Язык : Russian
Default : Да
Forced : Нет

Аудио #2
Идентификатор : 3
Формат : DTS
Формат/Информация : Digital Theater Systems
Профиль формата : ES
Режим : 16
Параметр Endianness формата : Big
Идентификатор кодека : A_DTS
Продолжительность : 1 ч. 41 м.
Вид битрейта : Постоянный
Битрейт : 1509 Кбит/сек
Каналы : 6 каналов
Расположение каналов : Front: L C R, Side: L R, LFE
Частота : 48,0 КГц
Битовая глубина : 24 бит
Метод сжатия : С потерями
Размер потока : 1,07 Гбайт (13%)
Заголовок : English DTS 5.1-ES 1509Kbps
Язык : English
Default : Нет
Forced : Нет

Текст #1
Идентификатор : 4
Формат : UTF-8
Идентификатор кодека : S_TEXT/UTF8
Идентификатор кодека/Информация : UTF-8 Plain Text
Язык : English
Default : Нет
Forced : Нет

Текст #2
Идентификатор : 5
Формат : UTF-8
Идентификатор кодека : S_TEXT/UTF8
Идентификатор кодека/Информация : UTF-8 Plain Text
Язык : Romanian
Default : Нет
Forced : Нет

Меню
00:00:00.000 : en:00:00:00.000
00:03:10.816 : en:00:03:10.816
00:05:14.314 : en:00:05:14.314
00:08:49.362 : en:00:08:49.362
00:13:02.240 : en:00:13:02.240
00:17:36.305 : en:00:17:36.305
00:19:19.408 : en:00:19:19.408
00:22:30.349 : en:00:22:30.349
00:26:48.690 : en:00:26:48.690
00:29:00.155 : en:00:29:00.155
00:30:59.691 : en:00:30:59.691
00:33:46.566 : en:00:33:46.566
00:36:34.192 : en:00:36:34.192
00:39:20.233 : en:00:39:20.233
00:41:32.657 : en:00:41:32.657
00:45:05.119 : en:00:45:05.119
00:47:23.090 : en:00:47:23.090
00:49:58.162 : en:00:49:58.162
00:52:05.456 : en:00:52:05.456
00:55:38.919 : en:00:55:38.919
00:58:10.904 : en:00:58:10.904
01:02:11.394 : en:01:02:11.394
01:04:38.083 : en:01:04:38.083
01:07:03.937 : en:01:07:03.937
01:09:18.196 : en:01:09:18.196
01:10:21.342 : en:01:10:21.342
01:15:17.763 : en:01:15:17.763
01:17:00.157 : en:01:17:00.157
01:21:41.855 : en:01:21:41.855
01:25:24.619 : en:01:25:24.619
01:29:42.711 : en:01:29:42.711
01:32:27.959 : en:01:32:27.959

info [Профиль]  [ЛС] 

post 14-Сен-2014 10:37 (спустя 2 месяца 13 дней) [-]0[+]

Топик был перенесен из форума Новинки 2013-2014 (DVD, HD DVD, Blu-ray, HD Rips, Web-DL) в форум Мультфильмы (HD Video)

L
 
Показать сообщения:    
Ответить на тему

Текущее время: 04-Дек 16:19

Часовой пояс: GMT + 4



Вы не можете начинать темы
Вы не можете отвечать на сообщения
Вы не можете редактировать свои сообщения
Вы не можете удалять свои сообщения
Вы не можете голосовать в опросах
Вы не можете прикреплять файлы к сообщениям
Вы не можете скачивать файлы