Ошибка

До окончания фрилича осталось:


Рио 2 / Rio 2 (Карлос Салдана) [2014, мультфильм, комедия, приключения, семейный, BDRip 720р]

Ответить на тему
 
Автор Сообщение

koss555

Пол: Пол:Муж

Стаж: 4 года 11 месяцев

Сообщений: 1549

Россия
Рейтинг

post 01-Июл-2014 00:04 1[+]

[Цитировать] 

Рио 2 / Rio 2
«It's on in the Amazon»

Год выпуска: 2014
Страна: США
Жанр: мультфильм, комедия, приключения, семейный
Продолжительность: 01:41:11
Перевод: Дублированный [цифровая лицензия iTunes]
Субтитры: English

Режиссер: Карлос Салдана
Сценарий: Карлос Салдана, Дженни Бикс, Йони Бреннер
Продюсер: Брюс Андерсон, Джон С. Донкин, Крис Уэдж
Оператор: Ренато Фалькао
Композитор: Джон Пауэлл
Художник: Исаак Холце
Монтаж: Гарри Хитнер, Рэнди Трагер

В ролях: Энн Хэтэуэй / Anne Hathaway (Jewel, озвучка), Джесси Айзенберг / Jesse Eisenberg (Blu, озвучка), Джейк Т. Остин / Jake T. Austin (Fernando, озвучка), Карлиньюс Браун / Carlinhos Brown (Audition Bird, озвучка), Кристин Ченоуэт / Kristin Chenoweth (Gabi, озвучка), Джемейн Клемент / Jemaine Clement (Nigel, озвучка), Джим Конрой / Jim Conroy (Capoeira Turtle, озвучка), Рэйчел Кроу / Rachel Crow (Carla, озвучка)


Описание: Голубчик, Жемчужинка и их трое детей живут счастливой жизнью в волшебном городе Рио-де-Жанейро. Когда Жемчужинка решает, что их детям нужно научиться жить как настоящим птицам, она настаивает на авантюрной поездке в дебри реки Амазонки. Там, пытаясь вписаться в новое окружение, Голубчик начинает беспокоиться, что может потерять Жемчужинку и детей, идущих на зов дикой природы.

Бюджет: $103 000 000
Сборы в США: $128 178 000
Сборы в мире: + $329 200 000 = $457 378 000 сборы
Сборы в России: $26 655 475
Зрители: Мексика 8.9 млн , Китай 6.6 млн , Бразилия 4.99 млн
Премьера (мир): 20 марта 2014
Премьера (РФ): 20 марта 2014, «Двадцатый Век Фокс СНГ» 3D
Релиз на DVD: 10 июля 2014 «Двадцатый Век Фокс СНГ»
Релиз на Blu-Ray: 10 июля 2014 «Двадцатый Век Фокс СНГ»
Рейтинг MPAA: Нет возрастных ограничений



Качество: BDRip 720р
Формат: MKV
Видео кодек: AVC
Аудио кодеk: AC3
Видео: 1280x536 (2.35:1), 23.976 fps, AVC, 3 118 Kbps
Аудио: Аудио #1Russian: AC3, 384 Kbps, 48.0 KHz, 6 ch
Аудио #2English: DTS, 1 510 Kbps, 48.0 KHz, 6 ch
· На одном из постеров к фильму около 150 попугаев вида голубой ара формируют в небе большую цифру 2. Это количество отражает реальную картину популяции вида на 2014 год (большинство из этих птиц находится в неволе).

· Этот фильм стал последним для сценариста Дона Раймера.
General
Complete name : R1o.2.2014.D.BDRip.720p....mkv
Format : Matroska
File size : 3.54 GiB
Duration : 1h 41mn
Overall bit rate : 5 013 Kbps
Movie name : RARBG.COM - Rio.2.2014.1080p.BluRay.REMUX.AVC.DTS-HD.MA.7.1-RARBG
Encoded date : UTC 2014-06-30 18:41:57
Writing application : mkvmerge v6.9.1 ('Blue Panther') 64bit built on Apr 18 2014 18:23:38
Writing library : libebml v1.3.0 + libmatroska v1.4.1

Video
ID : 1
Format : AVC
Format/Info : Advanced Video Codec
Format profile : High@L4.1
Format settings, CABAC : Yes
Format settings, ReFrames : 5 frames
Muxing mode : Container profile=Unknown@4.1
Codec ID : V_MPEG4/ISO/AVC
Duration : 1h 41mn
Bit rate : 3 118 Kbps
Width : 1 280 pixels
Height : 536 pixels
Display aspect ratio : 2.35:1
Frame rate : 23.976 fps
Color space : YUV
Chroma subsampling : 4:2:0
Bit depth : 8 bits
Scan type : Progressive
Bits/(Pixel*Frame) : 0.190
Stream size : 2.13 GiB (60%)
Writing library : x264 core 142 r2431 ac76440
Encoding settings : cabac=1 / ref=5 / deblock=1:0:0 / analyse=0x3:0x133 / me=umh / subme=8 / psy=1 / psy_rd=1.00:0.00 / mixed_ref=1 / me_range=16 / chroma_me=1 / trellis=1 / 8x8dct=1 / cqm=0 / deadzone=21,11 / fast_pskip=0 / chroma_qp_offset=-2 / threads=12 / lookahead_threads=2 / sliced_threads=0 / nr=0 / decimate=1 / interlaced=0 / bluray_compat=0 / constrained_intra=0 / bframes=3 / b_pyramid=2 / b_adapt=2 / b_bias=0 / direct=3 / weightb=1 / open_gop=0 / weightp=2 / keyint=250 / keyint_min=23 / scenecut=40 / intra_refresh=0 / rc_lookahead=50 / rc=2pass / mbtree=1 / bitrate=3118 / ratetol=1.0 / qcomp=0.60 / qpmin=0 / qpmax=69 / qpstep=4 / cplxblur=20.0 / qblur=0.5 / ip_ratio=1.40 / aq=1:1.00

Audio #1
ID : 2
Format : AC-3
Format/Info : Audio Coding 3
Mode extension : CM (complete main)
Codec ID : A_AC3
Duration : 1h 41mn
Bit rate mode : Constant
Bit rate : 384 Kbps
Channel(s) : 6 channels
Channel positions : Front: L C R, Side: L R, LFE
Sampling rate : 48.0 KHz
Bit depth : 16 bits
Stream size : 278 MiB (8%)
Language : Russian

Audio #2
ID : 3
Format : DTS
Format/Info : Digital Theater Systems
Format profile : ES
Codec ID : A_DTS
Duration : 1h 41mn
Bit rate mode : Constant
Bit rate : 1 510 Kbps
Channel(s) : 6 channels
Channel positions : Front: L C R, Side: L R, LFE
Sampling rate : 48.0 KHz
Bit depth : 24 bits
Stream size : 1.07 GiB (30%)

Text
ID : 4
Format : UTF-8
Codec ID : S_TEXT/UTF8
Codec ID/Info : UTF-8 Plain Text
info [Профиль]  [ЛС] 

post 01-Июл-2014 00:06 (спустя 2 минуты) [-]0[+]

Топик был перенесен из форума Оформление раздач (Кинематограф) в форум DVD, HD DVD, Blu-ray, HD Rips, Web-DL

koss555
 

Алексей78

Пол: Пол:Муж

Стаж: 6 лет 9 месяцев

Сообщений: 9

СССР
Рейтинг

post 01-Июл-2014 11:46 (спустя 11 часов) [-]-1[+]

[Цитировать] 

Поглотить предыдущую,2 часа раздать и .......круто!
А еще ув.человек.
 !  koss555:
Соблюдаем правила
info [Профиль]  [ЛС] 

post 14-Сен-2014 10:37 (спустя 2 месяца 12 дней) [-]0[+]

Топик был перенесен из форума Новинки 2013-2014 (DVD, HD DVD, Blu-ray, HD Rips, Web-DL) в форум Мультфильмы (HD Video)

L
 
Показать сообщения:    
Ответить на тему

Текущее время: 10-Дек 14:55

Часовой пояс: GMT + 4



Вы не можете начинать темы
Вы не можете отвечать на сообщения
Вы не можете редактировать свои сообщения
Вы не можете удалять свои сообщения
Вы не можете голосовать в опросах
Вы не можете прикреплять файлы к сообщениям
Вы не можете скачивать файлы