Ошибка

Счастливые Лесные Друзья / Happy Tree Friends [1-3 сезон+бонусы(178 серий)] (Кенн Наварро, Алан Лау, Дэвид Уинн)[1999-2010, Мультфильм, Ужасы,Комедия, DVDRip]

Ответить на тему
 
Автор Сообщение

vladafon

Пол: Пол:Муж

Стаж: 2 года 7 месяцев

Сообщений: 31

Россия
Рейтинг

post 27-Июн-2014 08:19 0[+]

[Цитировать] 

Счастливые Лесные Друзья / Happy Tree Friends



Год выпуска: 1999-2010
Страна: США, Канада
Жанр: мультфильм, ужасы, комедия
Продолжительность: 178 серий по 1-7 минут
Перевод: Без перевода(т.к. персонажи не разговаривают)
Режиссер: Кенн Наварро, Алан Лау, Дэвид Уинн
Описание: Это мультфильм о маленьких милых зверьках, с которыми постоянно случаются разные приключения, в которых все время что-то идет не так. И не важно насколько невинно начался их день — в конце его будет настоящий погром. Путешествия через свой живописный мир и разговоры на тарабарском языке — это всё, что у них есть, а главное — они никогда не знают, какие неприятности ожидают их в следующую секунду.

Особенность раздачи: все серии в формате AVI
Релиз группа: Mondo Media
Качество: DVDRip
Формат: AVI
Internet Shorts
Season 1 (2000 - 2003)
01. Spin Fun Knowin' Ya
02. House Warming
03. Helping Helps
04. Crazy Antics
05. Havin' A Ball
06. Water You Wading For
07. Nuttin' Wrong with Candy
08. Wheelin' and Dealin'
09. Pitchin' Impossible
10. Stayin' Alive
11. Treasure These Idol Moments
12. Chip Off the Ol' Block
13. Nuttin' but the Tooth
14. Hide and Seek
15. Whose Line Is It Anyway?
16. Boo Do You Think You Are?
17. Mime and Mime Again
18. You're Bakin' Me Crazy
19. Tongue Twister Trouble
20. Meat Me for Lunch
21. Sweet Ride
22. It's a Snap
23. Off the Hook
24. Spare Me
25. Snow What? That's What!
26. This is your Knife
27. Happy Trails pt. 1
Season 2 (2003 - 2005)
28. Happy Trails Pt. 2: Jumping the Shark
29. Eye Candy
30. Rink Hijinks
31. Flippin' Burgers
32. Get Whale Soon
33. Snip Snip Hooray!
34. Eyes Cold Lemonade
35. Milkin' It
36. Out of Sight, Out of Mime
37. Class Act
38. The Way You Make Me Wheel
39. Better Off Bread
40. I Get a Trick Out of You
41. Shard at Work
42. Water Way to Go
43. Out on a Limb
44. Keepin' it Reel
45. A Hard Act to Swallow
46. Let it Slide
47. Icy You
48. Hello Dolly
49. Remains to be Seen
50. Stealing the Spotlight
51. Ski Ya, Wouldn't Wanna be Ya!
52. Blind Date
53. Suck it Up
54. From A to Zoo
Season 3 (2007 - Present)
55. Read 'em and Weep
56. Can't Stop Coffin
57. We're Scrooged!
58. A Sucker for Love, Pt. One
59. A Sucker for Love, Pt. Two
60. Just Desert
61. Peas in a Pod
62. Wrath of Con
63. All Flocked Up
64. Something Fishy
65. Without A Hitch
66. Swelter Skelter
67. I Nub You
68. A Bit of a Pickle
69. See You Later, Elevator
70. Clause For Concern
71. The Chokes on You
72. Royal Flush
73. Random Acts of Silence
74. Breaking Wind
75. All in Vein
76. Bottled Up Inside
77. No Time Like the Present
78. By The Seat Of Your Pants
TV Series
Episode 1: One Foot in the Grave
1.1. The Wrong Side of the Tracks
1.2. From Hero to Eternity
1.3. And the Kitchen Sink
Episode 2: Lesser of Two Evils
2.1. Party Animal
2.2. Ipso Fatso
2.3. Don't Yank My Chain
Episode 3: The Third Degree
3.1. Doggone It
3.2. Concrete Solution
3.3. Sea What I Found
Episode 4: Four on the Floor
4.1. Easy For You to Sleigh
4.2. Wishy Washy
4.3. Who's to Flame?
Episode 5: Marooned Five
5.1. Every Litter Bit Hurts
5.2. As You Wish
5.3. Take a Hike
Episode 6: Deep Six
6.1. Snow Place to Go
6.2. Dunce Upon a Time
6.3. Gems the Breaks
Episode 7: Seventh Heaven
7.1. A Change of Heart
7.2. A Hole Lotta Love
7.3. Mime to Five
Episode 8: Behind the Eight Ball
8.1. Blast from the Past
8.2. Chew Said a Mouthful
8.3. See What Develops
Episode 9: Nine Lives
9.1. Idol Curiosity
9.2. Home Is Where the Hurt Is
9.3. Aw Shucks!
Episode 10: Going Ten Crazy
10.1. A Sight for Sore Eyes
10.2. Wipe Out
10.3. Letter Late than Never
Episode 11: Good and Nice Eleven
11.1. Wingin' It
11.2. Tongue in Cheek
11.3. Easy Comb, Easy Go
Episode 12: Series of Twelve
12.1. I've Got You Under My Skin
12.2. In a Jam
12.3. Junk in the Trunk
Episode 13: Thirteen Eyes on Me
13.1. Hear Today, Gone Tomorrow
13.2. Double Whammy
13.3. Autopsy Turvy
Irregular Episodes
1999: Banjo Frenzy
2003: Enter the Garden
1927: Dino-Sore Days
2003: Mole in the City
2004: Books of Fury
1950: Ski Patrol
2006: Intimate Spotlight
2006: Youtube Live Episode
2007: The Carpal Tunnel of Love
2008: Asbestos I Can Do
2008: False Alarm Episode
2010: YouTube 101: Subscriptions
Action Series: Ka-Pow!
W.A.R. (Weaponized Animal Regiment) Journal
01. Operation: Tiger Bomb
Splendid's SSSSSuper Squad
01. Mirror Mirror
Buddhist Monkey
01. Three Courses of Death
HTF Break
01. Seize the Day
02. Chore Loser
03. Deck the Halls
04. We Wish You
Love Bites
01. Cold Hearted
02. Sea of Love
03. I Heart U
Видео кодек: DivX Семпл
Аудио кодек: MP3
Видео: 320x240, 29 fps, 528 kbps
Аудио: 2 ch, 64 kbps, 44.1 KHz
Видео кодек: DivX(1-7 серия) Семпл,
MPEG4(8-24 серия) Семпл
Аудио кодек: MP3
Видео: 320x240(1-7 серия), 640x360(8-9 серия), 1280x720, 1920x1080(10-24 серия), 29 fps(1-7 серия), 24 fps(8-24 серия), 503 kbps(1-7 серия), 850 kbps(8-9 серия), 1084 Kbps(10-24 серия)
Аудио: 2 ch, 64 kbps(1-7 серия), 112 kbps(8-9 серия), 128 kbps(10-24 серия), 44.1 KHz
Видео кодек: MPEG4 Семпл,
Аудио кодек: MP3
Видео: 1280x720, 528x360, 480x360, 640x480, 24-30 fps, 1218 Kbps, 518 Kbps, 780 Kbps
Аудио: 2 ch, 64 kbps, 44.1 KHz
General
Format : AVI
Format/Info : Audio Video Interleave
File size : 8.65 MiB
Duration : 2mn 0s
Overall bit rate : 604 Kbps
Writing application : Lavf52.0.0

Video
ID : 0
Format : MPEG-4 Visual
Format profile : Advanced Simple@L1
Format settings, BVOP : Yes
Format settings, QPel : No
Format settings, GMC : No warppoints
Format settings, Matrix : Default (H.263)
Codec ID : DX50
Codec ID/Hint : DivX 5
Duration : 2mn 0s
Bit rate : 526 Kbps
Width : 320 pixels
Height : 240 pixels
Display aspect ratio : 4:3
Frame rate : 29.000 fps
Color space : YUV
Chroma subsampling : 4:2:0
Bit depth : 8 bits
Scan type : Progressive
Compression mode : Lossy
Bits/(Pixel*Frame) : 0.236
Stream size : 7.53 MiB (87%)
Writing library : Lavc51.48.0

Audio
ID : 1
Format : MPEG Audio
Format version : Version 1
Format profile : Layer 3
Mode : Joint stereo
Mode extension : MS Stereo
Codec ID : 55
Codec ID/Hint : MP3
Duration : 2mn 0s
Bit rate mode : Constant
Bit rate : 64.0 Kbps
Channel(s) : 2 channels
Sampling rate : 44.1 KHz
Compression mode : Lossy
Stream size : 939 KiB (11%)
Alignment : Aligned on interleaves
Interleave, duration : 26 ms (0.76 video frame)
Writing library : LAMEUUULAME3.96.1
General
Format : AVI
Format/Info : Audio Video Interleave
File size : 8.65 MiB
Duration : 2mn 0s
Overall bit rate : 604 Kbps
Writing application : Lavf52.0.0

Video
ID : 0
Format : MPEG-4 Visual
Format profile : Advanced Simple@L1
Format settings, BVOP : Yes
Format settings, QPel : No
Format settings, GMC : No warppoints
Format settings, Matrix : Default (H.263)
Codec ID : DX50
Codec ID/Hint : DivX 5
Duration : 2mn 0s
Bit rate : 526 Kbps
Width : 320 pixels
Height : 240 pixels
Display aspect ratio : 4:3
Frame rate : 29.000 fps
Color space : YUV
Chroma subsampling : 4:2:0
Bit depth : 8 bits
Scan type : Progressive
Compression mode : Lossy
Bits/(Pixel*Frame) : 0.236
Stream size : 7.53 MiB (87%)
Writing library : Lavc51.48.0

Audio
ID : 1
Format : MPEG Audio
Format version : Version 1
Format profile : Layer 3
Mode : Joint stereo
Mode extension : MS Stereo
Codec ID : 55
Codec ID/Hint : MP3
Duration : 2mn 0s
Bit rate mode : Constant
Bit rate : 64.0 Kbps
Channel(s) : 2 channels
Sampling rate : 44.1 KHz
Compression mode : Lossy
Stream size : 939 KiB (11%)
Alignment : Aligned on interleaves
Interleave, duration : 26 ms (0.76 video frame)
Writing library : LAMEUUULAME3.96.1
General
Format : AVI
Format/Info : Audio Video Interleave
File size : 31.7 MiB
Duration : 3mn 16s
Overall bit rate : 1 350 Kbps

Video
ID : 0
Format : MPEG-4 Visual
Format profile : Advanced Simple@L5
Format settings, BVOP : Yes
Format settings, QPel : Yes
Format settings, GMC : 3 warppoints
Format settings, Matrix : Default (H.263)
Codec ID : MP4V
Codec ID/Info : Apple QuickTime MPEG-4 native
Duration : 3mn 16s
Bit rate : 1 220 Kbps
Width : 640 pixels
Height : 480 pixels
Display aspect ratio : 4:3
Frame rate : 24.000 fps
Color space : YUV
Chroma subsampling : 4:2:0
Bit depth : 8 bits
Scan type : Progressive
Compression mode : Lossy
Bits/(Pixel*Frame) : 0.166
Stream size : 28.6 MiB (90%)
Writing library : DivX 1393

Audio
ID : 1
Format : MPEG Audio
Format version : Version 1
Format profile : Layer 3
Mode : Joint stereo
Mode extension : MS Stereo
Codec ID : 55
Codec ID/Hint : MP3
Duration : 3mn 16s
Bit rate mode : Constant
Bit rate : 112 Kbps
Channel(s) : 2 channels
Sampling rate : 44.1 KHz
Compression mode : Lossy
Stream size : 2.63 MiB (8%)
Alignment : Aligned on interleaves
Interleave, duration : 26 ms (0.63 video frame)
Interleave, preload duration : 1016 ms
info [Профиль]  [ЛС] 

useless_bytes

Пол: Пол:Муж

Стаж: 7 лет 5 месяцев

Сообщений: 21

Россия
Рейтинг

post 27-Июн-2014 17:35 (спустя 9 часов) [-]0[+]

[Цитировать] 

а есть ли подобное в виде флешек swf?
info [Профиль]  [ЛС] 

vladafon

Пол: Пол:Муж

Стаж: 2 года 7 месяцев

Сообщений: 31

Россия
Рейтинг

post 27-Июн-2014 20:23 (спустя 2 часа 48 минут) [-]1[+]

[Цитировать] 

useless_bytes писал(а):

а есть ли подобное в виде флешек swf?
Да, вот ссылка http://tapochek.net/viewtopic.php?t=23510
info [Профиль]  [ЛС] 

post 27-Июн-2014 22:33 (спустя 2 часа 9 минут) [-]0[+]

Топик был перенесен из форума Анонсы в форум Мультсериалы

koss555
 

yurotchka

Пол: Пол:Муж

Стаж: 4 года 11 месяцев

Сообщений: 29

Россия
Рейтинг

post 27-Июн-2014 23:33 (спустя 3 часа) [-]0[+]

[Цитировать] 

Как я еще жив после этих мультиков??? Это же вынос мозга нереальный, особенно по щегляне!!! kolob_105

_________________
info [Профиль]  [ЛС] 

Cocainoid

Пол: Пол:Муж

Стаж: 2 года 8 месяцев

Сообщений: 29

Гаити
Рейтинг

post 28-Июн-2014 01:10 (спустя 1 час 36 минут) [-]1[+]

[Цитировать] 

охохохоо, вспомни детство называется kolob_134

_________________
YOLO
info [Профиль]  [ЛС] 

Virtualllll

Пол: Пол:Муж

Стаж: 5 лет 5 месяцев

Сообщений: 454

Рейтинг

post 28-Июн-2014 09:55 (спустя 8 часов) [-]1[+]

[Цитировать] 

да, шикарный мульт)

_________________
info [Профиль]  [ЛС] 

igorek1983

Пол: Пол:Муж

Стаж: 6 лет 7 месяцев

Сообщений: 92

Предупреждений: 1

СССР
Рейтинг

post 29-Июн-2014 01:09 (спустя 15 часов) [-]-1[+]

[Цитировать] 

Cocainoid писал(а):

охохохоо, вспомни детство называется kolob_134
какое страшное детство у Вас было, однако...
info [Профиль]  [ЛС] 

Kiprian

Пол: Пол:Муж

Стаж: 4 года 1 месяц

Сообщений: 166

Россия
Рейтинг

post 29-Июн-2014 09:00 (спустя 7 часов) [-]0[+]

[Цитировать] 

igorek1983
А вы поглядите на нынешнею молодёжь выращенных на телепузиках(где авторы работали под коксом), спантч бобе, саурс парке и т.д.

_________________
info [Профиль]  [ЛС] 

Cocainoid

Пол: Пол:Муж

Стаж: 2 года 8 месяцев

Сообщений: 29

Гаити
Рейтинг

post 30-Июн-2014 10:48 (спустя 1 день 1 час) [-]0[+]

[Цитировать] 

igorek1983 писал(а):

Cocainoid писал(а):

охохохоо, вспомни детство называется kolob_134
какое страшное детство у Вас было, однако...
Да все впорядке, не переживайте kolob_125 Сейчас в интернетах дети и не такое смотрят kolob_124

_________________
YOLO
info [Профиль]  [ЛС] 
Показать сообщения:    
Ответить на тему

Текущее время: 05-Дек 22:41

Часовой пояс: GMT + 4



Вы не можете начинать темы
Вы не можете отвечать на сообщения
Вы не можете редактировать свои сообщения
Вы не можете удалять свои сообщения
Вы не можете голосовать в опросах
Вы не можете прикреплять файлы к сообщениям
Вы не можете скачивать файлы