Ошибка

Ветер крепчает / The Wind Rises / Kaze tachinu (Хаяо Миядзаки) [2013][драма, биография][BDRemux][1080p]

Ответить на тему
 
Автор Сообщение

Basketballman

Пол: Пол:Муж

Стаж: 7 лет 1 месяц

Сообщений: 280

Россия
Рейтинг

post 22-Июн-2014 05:41 5[+]

[Цитировать] 

Ветер крепчает / The Wind Rises / Kaze tachinu

Год выпуска: 2013
Страна: Япония
Жанр: драма, биография
Продолжительность: 02:06:30
Перевод: профессиональный (полное дублирование)
Субтитры: русские, английские
Режиссер:
  • Хаяо Миядзаки
В ролях:
  • Хидеаки Анно, Хидэтоси Нисидзима, Миори Такимото, Масахико Нисимура, Мансай Номура, Джозеф Гордон-Левитт, Дзюн Кунимура, Мираи Сида, Кейко Такэсита, Синобу Отакэ

Описание: Мальчик Дзиро мечтает о полетах и красивых самолетах, способных обогнать ветер. Вот только пилотом ему не стать — он с рождения близорук. Но Дзиро не расстается с мечтой о небе, он начинает придумывать идеальный самолет и со временем становится одним из лучших авиаконструкторов мира. На пути к успеху он не только встретит много интересных людей, переживет Великое землетрясение в Токио и жестокие войны, но и обретет любовь своей жизни — прекрасную Наоко.


Качество: BDRemux 1080p
Формат: MKV
Видео кодек: MPEG-4
Аудио кодек: AC3, DTS
Видео: 1920x1080, 23.976 fps, 25.8 Mбит/с
Аудио 1: Russian: AC3, 1 ch, 192 Kbps
Аудио 2: English: AC3, 1 ch, 192 Kbps
Аудио 3: Japanese: DTS, 1 ch, 768 Kbps
Субтитры: SRT

Sample
General
Unique ID : 245520902271136607404661368777613594180 (0xB8B59B1375EAD2938CB40FC9D6614E44)
Complete name : D:\Кино\The Wind Rises - Kaze tachinu BDRemux.mkv
Format : Matroska
Format version : Version 2
File size : 23.9 GiB
Duration : 2h 6mn
Overall bit rate mode : Variable
Overall bit rate : 27.0 Mbps
Movie name : Respector
Encoded date : UTC 2014-06-20 03:04:13
Writing application : mkvmerge v5.5.0 ('Healer') built on Apr 24 2012 23:47:03
Writing library : libebml v1.2.3 + libmatroska v1.3.0

Video
ID : 1
Format : AVC
Format/Info : Advanced Video Codec
Format profile : High@L4.1
Format settings, CABAC : Yes
Format settings, ReFrames : 2 frames
Format settings, GOP : M=3, N=24
Codec ID : V_MPEG4/ISO/AVC
Duration : 2h 6mn
Bit rate mode : Variable
Bit rate : 25.3 Mbps
Maximum bit rate : 40.0 Mbps
Width : 1 920 pixels
Height : 1 080 pixels
Display aspect ratio : 16:9
Frame rate mode : Constant
Frame rate : 23.976 fps
Color space : YUV
Chroma subsampling : 4:2:0
Bit depth : 8 bits
Scan type : Progressive
Bits/(Pixel*Frame) : 0.509
Stream size : 22.4 GiB (94%)
Language : Japanese
Default : Yes
Forced : No

Audio #1
ID : 2
Format : AC-3
Format/Info : Audio Coding 3
Mode extension : CM (complete main)
Format settings, Endianness : Big
Codec ID : A_AC3
Duration : 2h 6mn
Bit rate mode : Constant
Bit rate : 192 Kbps
Channel count : 1 channel
Channel positions : Front: C
Sampling rate : 48.0 KHz
Bit depth : 16 bits
Compression mode : Lossy
Stream size : 174 MiB (1%)
Language : Russian
Default : Yes
Forced : Yes

Audio #2
ID : 3
Format : AC-3
Format/Info : Audio Coding 3
Mode extension : CM (complete main)
Format settings, Endianness : Big
Codec ID : A_AC3
Duration : 2h 6mn
Bit rate mode : Constant
Bit rate : 192 Kbps
Channel count : 1 channel
Channel positions : Front: C
Sampling rate : 48.0 KHz
Bit depth : 16 bits
Compression mode : Lossy
Stream size : 174 MiB (1%)
Language : English
Default : No
Forced : No

Audio #3
ID : 4
Format : DTS
Format/Info : Digital Theater Systems
Mode : 16
Format settings, Endianness : Big
Codec ID : A_DTS
Duration : 2h 6mn
Bit rate mode : Constant
Bit rate : 768 Kbps
Channel count : 1 channel
Channel positions : Front: C
Sampling rate : 48.0 KHz
Bit depth : 24 bits
Compression mode : Lossy
Stream size : 695 MiB (3%)
Language : Japanese
Default : No
Forced : No

Text #1
ID : 5
Format : UTF-8
Codec ID : S_TEXT/UTF8
Codec ID/Info : UTF-8 Plain Text
Language : Russian
Default : No
Forced : No

Text #2
ID : 6
Format : UTF-8
Codec ID : S_TEXT/UTF8
Codec ID/Info : UTF-8 Plain Text
Language : English
Default : No
Forced : No

Menu
00:00:00.000 : ja:00:00:00.000
00:07:09.220 : ja:00:07:09.220
00:12:52.689 : ja:00:12:52.689
00:21:53.979 : ja:00:21:53.979
00:30:06.471 : ja:00:30:06.471
00:37:49.434 : ja:00:37:49.434
00:44:57.528 : ja:00:44:57.528
00:52:59.635 : ja:00:52:59.635
01:00:33.755 : ja:01:00:33.755
01:08:06.290 : ja:01:08:06.290
01:17:12.920 : ja:01:17:12.920
01:28:44.027 : ja:01:28:44.027
01:35:20.548 : ja:01:35:20.548
01:46:39.059 : ja:01:46:39.059
01:52:45.884 : ja:01:52:45.884
02:02:56.744 : ja:02:02:56.744
info [Профиль]  [ЛС] 

Xtal

Пол: Пол:Муж

Стаж: 5 лет 4 месяца

Сообщений: 171

Швейцария
Рейтинг

post 22-Июн-2014 10:17 (спустя 4 часа) [-]2[+]

[Цитировать] 

класс! спасибо!
info [Профиль]  [ЛС] 

Ritsu

Пол: Пол:Муж

Стаж: 5 лет 5 месяцев

Сообщений: 856

Австралия
Рейтинг

post 22-Июн-2014 15:52 (спустя 5 часов) [-]1[+]

[Цитировать] 

Ого!
Чей дубляж?
Надеюсь, Реанимедия?
Пасибо за раздачу.

_________________
Флудите вместе с Рицу и будет вам счастье! ^__^

"...Зажжем рок в этой дыре!.."
info [Профиль]  [ЛС] 

shandor

Пол: Пол:Муж

Стаж: 4 года 3 месяца

Сообщений: 2

Рейтинг

post 22-Июн-2014 16:10 (спустя 18 минут) [-]0[+]

[Цитировать] 

Ritsu
мосфильм
info [Профиль]  [ЛС] 

Tuuari

Стаж: 7 лет 7 месяцев

Сообщений: 816

Рейтинг

post 23-Июн-2014 09:54 (спустя 17 часов) [-]1[+]

[Цитировать] 

Мужжжжик!!!! Класс, спасибо!!!!

_________________
Arbeit macht frei
info [Профиль]  [ЛС] 
Показать сообщения:    
Ответить на тему

Текущее время: 03-Дек 00:04

Часовой пояс: GMT + 4



Вы не можете начинать темы
Вы не можете отвечать на сообщения
Вы не можете редактировать свои сообщения
Вы не можете удалять свои сообщения
Вы не можете голосовать в опросах
Вы не можете прикреплять файлы к сообщениям
Вы не можете скачивать файлы