Ошибка

Необъятные небеса (ТВ-2) | IS: Infinite Stratos 2 [TV2][1-12+1 из 12+1][2013][комедия, фантастика, меха, этти][BDRip][720p][Любительский(JAP+SUB)]

Ответить на тему
 
Автор Сообщение

precentor frost

Пол: Пол:Муж

Стаж: 7 лет 8 месяцев

Сообщений: 669

Рейтинг

post 20-Июн-2014 19:15 1[+]

[Цитировать] 



Необъятные небеса 2 || IS: Infinite Stratos 2 || IS <インフィニット・ストラトス>2


Страна:
Год выпуска: 2013 [04.10.2013 ~ 20.12.2013]
Жанр: комедия, фантастика, меха, этти
Продолжительность: TV 12 эп. по 24 мин.

Перевод: озвучка || субтитры

Режиссёр: Кикути Ясухито
Автор оригинала: Юмидзуру Идзуру
Студия:

Летние каникулы кончились, и десятки красавиц-пилотов, а среди них единственный парень Итика Оримура, снова приступили к занятиям в Небесной академии. Пятеро хорошо знакомых зрителю девушек, ближний круг Оримуры, держат несокрушимую внешнюю оборону и мило разбираются между собой, но любой гарем, как и Вселенная, имеет свойство расширяться! На парня внезапно положила глаз сама Татэнаси Сарасики, президент школьного Совета. Представительница России (!) не только назначила себя личным тренером Итики, но и дала понять, что готова на большее. При всей простоте и доступности, Татэнаси – сильнейший боец молодого поколения, а значит, с ней так просто не поспоришь!
Впрочем, нет худа без добра. Хороший тренер главному герою не помешает – ведь Оримура-младший пока что силен лишь в ближнем бою, а в снайперских действиях и стратегическом мышлении рассчитывает на коллег по «бригаде». Положение серьезное, ибо парнем по-прежнему интересуются разные силы, а защитниц рядом может и не оказаться. Тем более что недавно неизвестные террористы совершили дерзкое нападение на армейскую лабораторию, а значит, охота за сверхсовременными Доспехами вспыхнула с новой силой. А самое страшное будет, если кроме подруг детства у Итики еще и новые родственницы появятся!


© Hollow World Art


Информационные ссылки: AniDB || World Art || MAL

Качество: BDRip
Энкод: =^_^=
Тип видео: без хардсаба
Формат: mkv

Видео: x264 (Hi10p), 1280x720 (16:9), ~2200 Kbps, 23.976 fps
Аудио JAP: Vorbis, 48kHz, ~320 Kbps, 2ch

Аудио RUS #1: AC3, 48kHz, ~192 Kbps, 2ch || AniDUB (ext)
одноголосая (муж.) от Inspector_Gadjet
Аудио RUS #2: AC3, 48kHz, ~192 Kbps, 2ch || UA MAX (ext)
одноголосая (муж.) от Ray
Аудио RUS #3: AC3, 48kHz, ~192 Kbps, 2ch || SHiZA (ext)
двухголосая (муж./жен.) от GreyMoon & Viki
Аудио RUS #4: AC3, 48kHz, ~192 Kbps, 2ch || Anilibria (ext)
многоголосая от Eladiel & Silv & Lupin

Субтитры RUS: ASS, полные/вспомогательные || GMC (ext)
перевод: Koushin, редартура: Shifroval


01. The Memory of a Summer
02. Heart Pain Killer
03. Translucent Chord of Cinderella`s Heel
04. The Mysterious Lady
05. Lovely Style
06. The Secret Base
07. Sisters
08. Open Your Heart
09. The Requirements for a Hero
10. Cooking My Way
11. Looking For Memories
12. Girls Over

SP. The Memory of a Summer (Long Version)

Код:

Complete name                            : ..\[=^_^=] IS2 ep.01 long [BD720 x264 Vorbis].mkv
Format                                   : Matroska
Format version                           : Version 4 / Version 2
File size                                : 734 MiB
Duration                                 : 39mn 5s
Overall bit rate mode                    : Variable
Overall bit rate                         : 2 623 Kbps
Encoded date                             : UTC 2014-06-11 14:09:34
Writing application                      : mkvmerge v6.9.1 ('Blue Panther') 64bit built on Apr 18 2014 18:23:38
Writing library                          : libebml v1.3.0 + libmatroska v1.4.1

Video
ID                                       : 1
Format                                   : AVC
Format/Info                              : Advanced Video Codec
Format profile                           : High 10@L5.0
Format settings, CABAC                   : Yes
Format settings, ReFrames                : 7 frames
Codec ID                                 : V_MPEG4/ISO/AVC
Duration                                 : 39mn 5s
Bit rate                                 : 2 251 Kbps
Width                                    : 1 280 pixels
Height                                   : 720 pixels
Display aspect ratio                     : 16:9
Frame rate mode                          : Constant
Frame rate                               : 23.976 fps
Color space                              : YUV
Chroma subsampling                       : 4:2:0
Bit depth                                : 10 bits
Scan type                                : Progressive
Bits/(Pixel*Frame)                       : 0.102
Stream size                              : 630 MiB (86%)
Title                                    : IS2: Infinite Stratos 2 ep.01 Long Version «The Memory of a Summer»
Writing library                          : x264 core 142 r2409 d6b4e63
Encoding settings                        : cabac=1 / ref=7 / deblock=1:-3:-3 / analyse=0x3:0x113 / me=esa / subme=9 / psy=1 / psy_rd=0.90:0.00 / mixed_ref=1 / me_range=32 / chroma_me=1 / trellis=2 / 8x8dct=1 / cqm=0 / deadzone=21,11 / fast_pskip=0 / chroma_qp_offset=-2 / threads=12 / lookahead_threads=2 / sliced_threads=0 / nr=0 / decimate=0 / interlaced=0 / bluray_compat=0 / constrained_intra=0 / bframes=8 / b_pyramid=2 / b_adapt=2 / b_bias=0 / direct=1 / weightb=1 / open_gop=0 / weightp=2 / keyint=240 / keyint_min=24 / scenecut=40 / intra_refresh=0 / rc=crf / mbtree=0 / crf=15.8 / qcomp=0.75 / qpmin=0 / qpmax=81 / qpstep=4 / ip_ratio=1.40 / pb_ratio=1.30 / aq=1:0.85
Default                                  : Yes
Forced                                   : No
Color primaries                          : BT.709
Transfer characteristics                 : BT.709
Matrix coefficients                      : BT.709

Audio
ID                                       : 2
Format                                   : Vorbis
Format settings, Floor                   : 1
Codec ID                                 : A_VORBIS
Duration                                 : 39mn 5s
Bit rate mode                            : Variable
Bit rate                                 : 320 Kbps
Channel(s)                               : 2 channels
Sampling rate                            : 48.0 KHz
Compression mode                         : Lossy
Stream size                              : 89.5 MiB (12%)
Writing library                          : libVorbis (Schaufenugget) (20101101 (Schaufenugget))
Language                                 : Japanese
Default                                  : Yes
Forced                                   : No

Menu
00:00:00.000                             : :info
00:02:18.847                             : :op
00:03:48.854                             : :part_a
00:13:51.706                             : :part_b
00:22:46.865                             : :part_c
00:34:40.912                             : :ed
00:38:34.979                             : :preview
info [Профиль]  [ЛС] 

мужиггг

Пол: Пол:Муж

Стаж: 6 лет 4 месяца

Сообщений: 357

Украина
Рейтинг

post 21-Июн-2014 14:23 (спустя 19 часов) [-]0[+]

[Цитировать] 

время гарема пришло
info [Профиль]  [ЛС] 
Показать сообщения:    
Ответить на тему

Текущее время: 05-Дек 00:23

Часовой пояс: GMT + 4



Вы не можете начинать темы
Вы не можете отвечать на сообщения
Вы не можете редактировать свои сообщения
Вы не можете удалять свои сообщения
Вы не можете голосовать в опросах
Вы не можете прикреплять файлы к сообщениям
Вы не можете скачивать файлы