Ошибка

Кот Гром и заколдованный дом / The House of Magic (Джереми Дегрусон, Бен Стассен) [2013, мультфильм, семейный, HDRip]

Ответить на тему
 
Автор Сообщение

koss555

Пол: Пол:Муж

Стаж: 4 года 11 месяцев

Сообщений: 1549

Россия
Рейтинг

post 14-Июн-2014 00:10 1[+]

[Цитировать] 

Кот Гром и заколдованный дом / The House of Magic

Год выпуска: 2013
Страна: США , Бельгия
Жанр: мультфильм, семейный
Продолжительность: 01:25:28
Перевод: Дублированное [Лицензия]

Режиссер: Джереми Дегрусон, Бен Стассен
Сценарий: Бен Стассен, Джеймс Флинн, Доминик Пари
Продюсер: Надя Хамлиши, Адриан Политовски, Бен Стассен
Композитор: Рамин Джавади
Художник: Джереми Дегрусон

В ролях: Синда Адамс / Cinda Adams (Nurse Baxter, озвучка), Эдвард Эснер / Edward Asner (Sr. Jeffrey McDonough, озвучка), Эмили Блант / Emily Blunt (Kayla, озвучка), Грант Джордж / Grant George (Daniel, озвучка), Юджин Леви / Eugene Levy (Larry, озвучка), Дэнни Манн / Danny Mann (Dimitri, озвучка), Юэн МакГрегор / Ewan McGregor (Lenny, озвучка), Рон Перлман / Ron Perlman (Randy, озвучка)


Описание: Любопытный рыжий кот попадает в дом старого фокусника и узнает секрет его трюков. Так начинается его знакомство с учеными зверями и живыми игрушками, а также невероятные приключения полные юмора и опасностей.

Бюджет: $34 000 000
Сборы в России: $5 089 281
Зрители: Франция 1.03 млн , Россия 951.4 тыс. , Корея Южная 880.4 тыс.
Премьера (мир): 24 декабря 2013
Премьера (РФ): 8 мая 2014, «Вольга» 3D
Релиз на DVD: 23 июня 2014 «Вольга»



Качество: HDRip
Формат: AVI
Видео кодек: XviD
Аудио кодеk: AC3
Видео: 720x400 (16:9), 24.000 fps, XviD, 1 892 Kbps
Аудио: Аудио #1Rus: AC3, 384 Kbps, 48.0 KHz, 6 ch
General
Complete name : Kot.Gr0m.i.Zak0ld0vannyy.dom.2014.D.HDRip.1400MB.avi
Format : AVI
Format/Info : Audio Video Interleave
File size : 1.36 GiB
Duration : 1h 25mn
Overall bit rate : 2 285 Kbps
Writing application : VirtualDubMod 1.5.10.2 (build 2540/release)
Writing library : VirtualDubMod build 2540/release

Video
ID : 0
Format : MPEG-4 Visual
Format profile : Advanced Simple@L5
Format settings, BVOP : Yes
Format settings, QPel : No
Format settings, GMC : No warppoints
Format settings, Matrix : Custom
Codec ID : XVID
Codec ID/Hint : XviD
Duration : 1h 25mn
Bit rate : 1 892 Kbps
Width : 720 pixels
Height : 400 pixels
Display aspect ratio : 16:9
Frame rate : 24.000 fps
Color space : YUV
Chroma subsampling : 4:2:0
Bit depth : 8 bits
Scan type : Progressive
Bits/(Pixel*Frame) : 0.274
Stream size : 1.13 GiB (83%)
Writing library : XviD 1.2.1 (UTC 2008-12-04)

Audio
ID : 1
Format : AC-3
Format/Info : Audio Coding 3
Mode extension : CM (complete main)
Codec ID : 2000
Duration : 1h 25mn
Bit rate mode : Constant
Bit rate : 384 Kbps
Channel(s) : 6 channels
Channel positions : Front: L C R, Side: L R, LFE
Sampling rate : 48.0 KHz
Bit depth : 16 bits
Stream size : 235 MiB (17%)
Alignment : Split accross interleaves
Interleave, duration : 42 ms (1.00 video frame)
Interleave, preload duration : 500 ms
info [Профиль]  [ЛС] 

post 14-Июн-2014 00:11 (спустя 26 секунд) [-]0[+]

Топик был перенесен из форума Оформление раздач (Кинематограф) в форум Rips

koss555
 

Sammo Hung

Пол: Пол:Муж

Стаж: 6 лет 11 месяцев

Сообщений: 714

Предупреждений: 3

СССР
Рейтинг

post 14-Июн-2014 01:59 (спустя 1 час 48 минут) [-]-2[+]

[Цитировать] 

Я так понимаю, здесь только русская озвучка, так почему указаны актеры анг. версии?
info [Профиль]  [ЛС] 

Ayase

Пол: Пол:Муж

Стаж: 6 лет 8 месяцев

Сообщений: 58

Россия
Рейтинг

post 14-Июн-2014 10:10 (спустя 8 часов) [-]0[+]

[Цитировать] 

Спасибки!

_________________
Нету подписи.
info [Профиль]  [ЛС] 

post 25-Июн-2014 10:36 (спустя 11 дней) [-]0[+]

Топик был перенесен из форума Rips в форум Зарубежное кино | Rips

L
 

post 25-Июн-2014 10:42 (спустя 11 дней) [-]0[+]

Топик был перенесен из форума Зарубежное кино | Rips в форум Зарубежные полнометражные мультфильмы

L
 
Показать сообщения:    
Ответить на тему

Текущее время: 08-Дек 22:20

Часовой пояс: GMT + 4



Вы не можете начинать темы
Вы не можете отвечать на сообщения
Вы не можете редактировать свои сообщения
Вы не можете удалять свои сообщения
Вы не можете голосовать в опросах
Вы не можете прикреплять файлы к сообщениям
Вы не можете скачивать файлы