Ошибка

Кот Гром и заколдованный дом / The House of Magic (Джереми Дегрусон, Бен Стассен) [2013, мультфильм, семейный, BDRip 1080p 3D (HOU)]

Ответить на тему
 
Автор Сообщение

koss555

Пол: Пол:Муж

Стаж: 4 года 11 месяцев

Сообщений: 1549

Россия
Рейтинг

post 13-Июн-2014 23:56 1[+]

[Цитировать] 

Кот Гром и заколдованный дом / The House of Magic

Год выпуска: 2013
Страна: США , Бельгия
Жанр: мультфильм, семейный
Продолжительность: 01:25:08
Перевод: Дублированное [Лицензия]

Режиссер: Джереми Дегрусон, Бен Стассен
Сценарий: Бен Стассен, Джеймс Флинн, Доминик Пари
Продюсер: Надя Хамлиши, Адриан Политовски, Бен Стассен
Композитор: Рамин Джавади
Художник: Джереми Дегрусон

В ролях: Синда Адамс / Cinda Adams (Nurse Baxter, озвучка), Эдвард Эснер / Edward Asner (Sr. Jeffrey McDonough, озвучка), Эмили Блант / Emily Blunt (Kayla, озвучка), Грант Джордж / Grant George (Daniel, озвучка), Юджин Леви / Eugene Levy (Larry, озвучка), Дэнни Манн / Danny Mann (Dimitri, озвучка), Юэн МакГрегор / Ewan McGregor (Lenny, озвучка), Рон Перлман / Ron Perlman (Randy, озвучка)


Описание: Любопытный рыжий кот попадает в дом старого фокусника и узнает секрет его трюков. Так начинается его знакомство с учеными зверями и живыми игрушками, а также невероятные приключения полные юмора и опасностей.

Бюджет: $34 000 000
Сборы в России: $5 089 281
Зрители: Франция 1.03 млн , Россия 951.4 тыс. , Корея Южная 880.4 тыс.
Премьера (мир): 24 декабря 2013
Премьера (РФ): 8 мая 2014, «Вольга» 3D
Релиз на DVD: 23 июня 2014 «Вольга»



Качество: BDRip 1080p 3D (HOU)
Формат: MKV
Видео кодек: AVC
Аудио кодеk: AC3
Видео: 1920x1080 (16:9), 23.976 fps, AVC, 6 833 Kbps
Аудио: Аудио #1Rus: AC3, 384 Kbps, 48.0 KHz, 6 ch
Аудио #2Eng: AC3, 640 Kbps, 48.0 KHz, 6 ch
General
Complete name : Kot.Gr0m.i.Zak0ld0vannyy.dom.2014.D.BDRip.1080p.3D.HOU.mkv
Format : Matroska
File size : 4.77 GiB
Duration : 1h 25mn
Overall bit rate : 8 017 Kbps
Movie name : M@HD
Encoded date : UTC 2014-06-13 18:54:01
Writing application : mkvmerge v6.9.1 ('Blue Panther') 64bit built on Apr 18 2014 18:23:38
Writing library : libebml v1.3.0 + libmatroska v1.4.1

Video
ID : 1
Format : AVC
Format/Info : Advanced Video Codec
Format profile : High@L4.1
Format settings, CABAC : Yes
Format settings, ReFrames : 4 frames
Muxing mode : Container profile=Unknown@4.1
Codec ID : V_MPEG4/ISO/AVC
Duration : 1h 25mn
Bit rate : 6 833 Kbps
Width : 1 920 pixels
Height : 1 080 pixels
Display aspect ratio : 16:9
Frame rate : 23.976 fps
Color space : YUV
Chroma subsampling : 4:2:0
Bit depth : 8 bits
Scan type : Progressive
Bits/(Pixel*Frame) : 0.137
Stream size : 4.06 GiB (85%)
Title : BDRip by Ash61
Writing library : x264 core 129 r2245 bc13772
Encoding settings : cabac=1 / ref=4 / deblock=1:-3:-3 / analyse=0x3:0x113 / me=umh / subme=10 / psy=1 / psy_rd=1.00:0.15 / mixed_ref=1 / me_range=32 / chroma_me=1 / trellis=2 / 8x8dct=1 / cqm=0 / deadzone=21,11 / fast_pskip=1 / chroma_qp_offset=-3 / threads=12 / lookahead_threads=2 / sliced_threads=0 / nr=0 / decimate=1 / interlaced=0 / bluray_compat=0 / constrained_intra=0 / bframes=9 / b_pyramid=2 / b_adapt=2 / b_bias=0 / direct=3 / weightb=1 / open_gop=0 / weightp=2 / keyint=250 / keyint_min=23 / scenecut=40 / intra_refresh=0 / rc_lookahead=60 / rc=crf / mbtree=1 / crf=17.5 / qcomp=0.70 / qpmin=0 / qpmax=69 / qpstep=4 / vbv_maxrate=40000 / vbv_bufsize=30000 / crf_max=0.0 / nal_hrd=none / frame-packing=4 / ip_ratio=1.40 / aq=1:0.70
Language : French

Audio #1
ID : 2
Format : AC-3
Format/Info : Audio Coding 3
Mode extension : CM (complete main)
Codec ID : A_AC3
Duration : 1h 25mn
Bit rate mode : Constant
Bit rate : 384 Kbps
Channel(s) : 6 channels
Channel positions : Front: L C R, Side: L R, LFE
Sampling rate : 48.0 KHz
Bit depth : 16 bits
Stream size : 234 MiB (5%)
Language : Russian

Audio #2
ID : 3
Format : AC-3
Format/Info : Audio Coding 3
Mode extension : CM (complete main)
Codec ID : A_AC3
Duration : 1h 25mn
Bit rate mode : Constant
Bit rate : 640 Kbps
Channel(s) : 6 channels
Channel positions : Front: L C R, Side: L R, LFE
Sampling rate : 48.0 KHz
Bit depth : 16 bits
Stream size : 390 MiB (8%)
info [Профиль]  [ЛС] 

post 13-Июн-2014 23:59 (спустя 2 минуты) [-]0[+]

Топик был перенесен из форума Оформление раздач (Кинематограф) в форум 3D Новинки

koss555
 

Saitek

Пол: Пол:Муж

Стаж: 4 года 11 месяцев

Сообщений: 74

Россия
Рейтинг

post 14-Июн-2014 07:19 (спустя 7 часов) [-]-9[+]

[Цитировать] 

скорости

_________________
info [Профиль]  [ЛС] 

post 08-Ноя-2014 11:30 (спустя 4 месяца 24 дня) [-]0[+]

Топик был перенесен из форума 3D Новинки в форум Новинки (3D)

L
 

post 18-Ноя-2014 17:02 (спустя 5 месяцев 4 дня) [-]0[+]

Топик был перенесен из форума Новинки (3D) в форум 3D

BZzz
 
Показать сообщения:    
Ответить на тему

Текущее время: 05-Дек 04:34

Часовой пояс: GMT + 4



Вы не можете начинать темы
Вы не можете отвечать на сообщения
Вы не можете редактировать свои сообщения
Вы не можете удалять свои сообщения
Вы не можете голосовать в опросах
Вы не можете прикреплять файлы к сообщениям
Вы не можете скачивать файлы