Ошибка

Митико и Хаттин / Michiko to Hatchin [TV] [1-22 из 22] [2008][приключения][BDRip][720p][Любительская (ext), JAP+SUB]

Ответить на тему
 
Автор Сообщение

L

Пол: Пол:Муж

Стаж: 6 лет 7 месяцев

Сообщений: 10828

Украина
Рейтинг

post 02-Июн-2014 08:48 2[+]

[Цитировать] 


Год выпуска: 2008
Страна: Япония
Жанр: приключения
Продолжительность: ТВ-сериал, 22 эп. по 24 мин.
Выпуск: c 16.10.2008 по 19.03.2009
Озвучка:
  • двухголосая (муж./жен.)
      absurd95 & Eladiel
  • многоголосая от MCA
      участники: Volk, Valkrist, Buttercup [1-7], Keneretta [1-7], Yuuhi [8-22], Vaily [8-22]
Субтитры:
  • русские субтитры от Dreamers Team (полные/вспомогательные)
      переводчики/редакторы: Amarillis, Ryuji, перевод песен/оформление: Looriental

Режиссер: Ямамото Саё
Студия: Manglobe
Описание:
Митико Маландро – красивая темнокожая женщина, сбежавшая из тюрьмы и постоянно нарушающая закон. Хаттин – девятилетняя девочка-сирота, выросшая в семье корыстолюбивого священника и почти потерявшая надежду встретить своих настоящих родителей. Единственное, что объединяет их двоих, это Хироси Моренос, отец Хаттин и возлюбленный Митико. И ещё есть загадочная татуировка на пупке... Больше ничего общего: разные привычки, цвет волос и взгляды на жизнь. Но приходится держаться вместе, чтобы искать Хироси, скрываться от полиции и просто выживать в суровом мире, который безжалостен к женщинам, какими бы привлекательными или смелыми они ни были.

События этой стильной криминальной драмы разворачиваются в Южной Америке среди знойных пустынь, шумных рынков и опасных трущоб, вблизи океана, под горячим солнцем пустыни. Идеально подобранный саундтрек, отличная анимация, оригинальный состав сэйю (главных героинь озвучивают актрисы кино) и динамичный сюжет превращают этот долгожданный сериал студии Manglobe в заметное событие сезона.
© Расселл Д. Джонс, World Art

Первое аниме, транслировавшееся в ночном блоке передач NOISE телеканала Fuji TV (по подобию знаменитого блока Noitamina того же телеканала).
Информационные ссылки: AniDB || World Art || MAL
Качество: BDRip
Энкод: Winter - RG Pantheon
Тип видео: без хардсаба, без линковки
Формат: mkv
Видео: x264 (Hi10p), 1280x720, ~2500 Kbps, 23.976 fps
Аудио JAP: Vorbis, 48000Hz, ~256 Kbps, 2ch
Аудио RUS 1-2: AC3, 48000Hz, ~192 Kbps, 2ch (внешними файлами)
01. Goodbye Heartless Paradise!
02. Brown Sugar on the Run From the Law
03. Like a Desperate Pinball Machine
04. Stray Cat's Milky Way
05. The Fool's Yearning Part 1
06. The Fool's Yearning Part 2
07. The Monotone of Falling Rain
08. Black Noise and a Dope Game
09. Passionate Chocolate Girl
10. The Carnival of Hyenas
11. Start Line for the Downpour
12. 108 Degrees of Telepathic Purgatory
13. Goldfish Bog
14. Reckless and Explosive Runner
15. Mischievous Graffiti
16. Crimson Faithless Etude
17. Bloodfest! Heart Wrenching Opera
18. Fool's Ballistic Samba
19. Butterfly of Tantalizing Shade
20. Massacre Rendez-Vous
21. Off-Season Last Waltz
22. Run with the Truth
Общее
Уникальный идентификатор : 177563875390883509068591711038277764251 (0x85958EF79B407F55A602CD5483E9449B)
Полное имя : Q:\Anime\720p\Michiko to Hatchin [BD] [720p]\[Winter] Michiko to Hatchin 04 [BDrip 1280x720 x264 Vorbis].mkv
Формат : Matroska
Версия формата : Version 2
Размер файла : 451 Мбайт
Продолжительность : 22 м.
Режим общего битрейта : Переменный
Общий поток : 2789 Кбит/сек
Дата кодирования : UTC 2014-05-10 15:58:52
Программа кодирования : mkvmerge v2.9.8 ('C'est le bon') built on Aug 13 2009 12:49:06
Библиотека кодирования : libebml v0.7.7 + libmatroska v0.8.1

Видео
Идентификатор : 1
Формат : AVC
Формат/Информация : Advanced Video Codec
Профиль формата : High 10@L4.1
Параметр CABAC формата : Да
Параметр ReFrames формата : 9 кадров
Идентификатор кодека : V_MPEG4/ISO/AVC
Продолжительность : 22 м.
Битрейт : 2477 Кбит/сек
Ширина : 1280 пикселей
Высота : 720 пикселей
Соотношение сторон : 16:9
Режим частоты кадров : Постоянный
Частота кадров : 23,976 кадра/сек
Цветовое пространство : YUV
Субдискретизация насыщенности : 4:2:0
Битовая глубина : 10 бит
Тип развёртки : Прогрессивная
Бит/(Пиксели*Кадры) : 0.112
Размер потока : 401 Мбайт (89%)
Библиотека кодирования : x264 core 132 r2309 3b1f1f7
Настройки программы : cabac=1 / ref=9 / deblock=1:-2:-2 / analyse=0x3:0x133 / me=umh / subme=9 / psy=1 / psy_rd=0.90:0.00 / mixed_ref=1 / me_range=24 / chroma_me=1 / trellis=2 / 8x8dct=1 / cqm=0 / deadzone=21,11 / fast_pskip=1 / chroma_qp_offset=-2 / threads=12 / lookahead_threads=2 / sliced_threads=0 / nr=0 / decimate=0 / interlaced=0 / bluray_compat=0 / constrained_intra=0 / bframes=8 / b_pyramid=2 / b_adapt=2 / b_bias=0 / direct=1 / weightb=1 / open_gop=0 / weightp=2 / keyint=250 / keyint_min=23 / scenecut=40 / intra_refresh=0 / rc=crf / mbtree=0 / crf=15.5 / qcomp=0.70 / qpmin=9 / qpmax=40 / qpstep=4 / ip_ratio=1.40 / pb_ratio=1.30 / aq=1:0.90
Default : Нет
Forced : Нет

Аудио
Идентификатор : 2
Формат : Vorbis
Параметр Floor формата : 1
Идентификатор кодека : A_VORBIS
Продолжительность : 22 м.
Вид битрейта : Переменный
Битрейт : 256 Кбит/сек
Каналы : 2 канала
Частота : 48,0 КГц
Метод сжатия : С потерями
Размер потока : 41,4 Мбайт (9%)
Библиотека кодирования : libVorbis (Schaufenugget) (20101101 (Schaufenugget))
Язык : Japanese
Default : Да
Forced : Нет


info [Профиль]  [ЛС] 

GjS

Пол: Пол:Муж

Стаж: 7 лет 8 месяцев

Сообщений: 17

Россия
Рейтинг

post 03-Июн-2014 05:06 (спустя 20 часов) [-]0[+]

[Цитировать] 

как аниме? стоит смотреть?
info [Профиль]  [ЛС] 

DeusNeko

Пол: Пол:Муж

Стаж: 7 лет 2 месяца

Сообщений: 1381

Предупреждений: 1

Россия
Рейтинг

post 03-Июн-2014 12:10 (спустя 7 часов) [-]0[+]

[Цитировать] 

GjS писал(а):

как аниме? стоит смотреть?
Начинается за здравие, но чем дальше, тем унылее становится всё. Я в своё время дропнул где-то ближе к середине, и не чувствую желания пересматривать.

_________________
Matrix Mini-I Pro -> Questyle CMA800R -> Sennheiser HD 280/PSB M4U 1/Beyerdynamic DT 770 Pro/Beyerdynamic T90/HiFiMAN HE-400
info [Профиль]  [ЛС] 
Показать сообщения:    
Ответить на тему

Текущее время: 08-Дек 16:03

Часовой пояс: GMT + 4



Вы не можете начинать темы
Вы не можете отвечать на сообщения
Вы не можете редактировать свои сообщения
Вы не можете удалять свои сообщения
Вы не можете голосовать в опросах
Вы не можете прикреплять файлы к сообщениям
Вы не можете скачивать файлы