Ошибка

КВН 2014. Высшая лига. Первая 1/4 финала [2014 г., юмористическое ТВ-шоу, HDTVRip-AVC]

Ответить на тему
 
Автор Сообщение

Alex Ander

Пол: Пол:Муж

Стаж: 7 лет 5 месяцев

Сообщений: 2379

СССР
Рейтинг

post 01-Июн-2014 13:33 0[+]

[Цитировать] 

КВН 2014. Высшая лига. Первая 1/4 финала

Год выпуска: 2014
Страна: Россия
Жанр: юмористическое ТВ-шоу
Продолжительность: 01:52:14

Дата игры: 10.04.2014
Дата эфира: 20.04.2014

Тема сезона: Перезагрузка
Тема игры: Путешествие пешком

Команды:
    Молодость, Саратов, Сборная Мурманска, Азия MIX, Союз
Описание:
    Перезагрузка продолжается. Меняется тема игры. Как и в предыдущих играх сезона более опытные команды соревнуются с новичками.
Жюри:
    Михаил Галустян, Лариса Гузеева, Константин Эрнст, Николай Фоменко, Михаил Ефремов, Юлий Гусман


Качество: HDTVRip
Формат: MKV
Видео кодек: H.264
Аудио кодек: MP3
Видео: 720x408 25 fps 1465 kpps
Аудио: 48.0 KHz, 2 ch 192 kbps
Приветствие Дорогу осилит идущий

Молодость
- воспоминания о великих путниках
- семья готовится ко сну после выпуска новостей
- девушка не дождалась из армии спецназовца
- сибирский мужичок задолжал денег серьёзным людям

Саратов
- впечатления мэра Саратова о выступлении в 1/8
- человек без цели в жизни на собеседовании
- как по пьяни красивеет уже самая красивая девушка страны (Виктория Лопырёва)
- аудиокниги жалоб саратовских поликлиник

Сборная Мурманска
- презентация подарка
- человек без цели в жизни на собеседовании
- цель игры в КВН
- приветствие закончилось

Азия MIX
- Пётр I прорубает окно в Азию
- на сеансе иглоукалывания
- восточная семья на приёме у семейного психолога
- экстренный саммит азиатских стран

Союз
- песня про полуостров
- кто как попал в команду
- заседание ООН
- двойка от Фоменко

Биатлон
Игра на вылет за целый балл. Но нервов и бессонных ночей на этот конкурс у команд уходит больше, чем на балл.

Капитанский конкурс Рассказ путника

Саратов
- о холодильнике "Саратов"

Азия MIX
- первый кыргызский смартфон

Союз
- рассказ о поездке в Москву

Сборная Мурманска
- конкурс мурманских Капитанов

Молодость
- воспоминания о родном дворе

Музыкальный сюжет С песней весело шагать

Молодость
- поступление на эстрадно-музыкальный факультет

Сборная Мурманска
- нет времени показать конкурс

Саратов
- музыкальный "Что? Где? Когда?" знатоки против звёзд

Азия MIX
- постановка по мотивам Островского "Беспрописчица"

Союз
- крайне омузыкаленный рассказ из обычной жизни
General
Unique ID : 194367752204700607157588474932224458497 (0x9239DE0F331757F4ABC73B0CE029FF01)
Complete name :
Format : Matroska
Format version : Version 4 / Version 2
File size : 1.30 GiB
Duration : 1h 52mn
Overall bit rate : 1 659 Kbps
Encoded date : UTC 2014-04-21 14:39:22
Writing application : mkvmerge v6.9.1 ('Blue Panther') 64bit built on Apr 18 2014 18:23:38
Writing library : libebml v1.3.0 + libmatroska v1.4.1
Attachment : Yes

Video
ID : 1
Format : AVC
Format/Info : Advanced Video Codec
Format profile : High@L3.1
Format settings, CABAC : Yes
Format settings, ReFrames : 8 frames
Codec ID : V_MPEG4/ISO/AVC
Duration : 1h 52mn
Bit rate : 1 465 Kbps
Width : 720 pixels
Height : 408 pixels
Display aspect ratio : 16:9
Original display aspect ratio : 16:9
Frame rate mode : Constant
Frame rate : 25.000 fps
Color space : YUV
Chroma subsampling : 4:2:0
Bit depth : 8 bits
Scan type : Progressive
Bits/(Pixel*Frame) : 0.199
Stream size : 1.12 GiB (86%)
Writing library : x264 core 128 r2216M 198a7ea
Encoding settings : cabac=1 / ref=9 / deblock=1:0:0 / analyse=0x3:0x133 / me=umh / subme=11 / psy=1 / psy_rd=1.00:0.20 / mixed_ref=1 / me_range=32 / chroma_me=1 / trellis=2 / 8x8dct=1 / cqm=0 / deadzone=21,11 / fast_pskip=0 / chroma_qp_offset=-3 / threads=6 / lookahead_threads=1 / sliced_threads=0 / nr=0 / decimate=1 / interlaced=0 / bluray_compat=0 / constrained_intra=0 / bframes=9 / b_pyramid=1 / b_adapt=2 / b_bias=0 / direct=3 / weightb=1 / open_gop=0 / weightp=2 / keyint=250 / keyint_min=25 / scenecut=40 / intra_refresh=0 / rc_lookahead=40 / rc=2pass / mbtree=1 / bitrate=1465 / ratetol=1.0 / qcomp=0.60 / qpmin=10 / qpmax=51 / qpstep=4 / cplxblur=20.0 / qblur=0.5 / ip_ratio=1.40 / aq=1:1.00
Language : Russian
Default : Yes
Forced : No

Audio
ID : 2
Format : MPEG Audio
Format version : Version 1
Format profile : Layer 2
Codec ID : A_MPEG/L2
Codec ID/Hint : MP2
Duration : 1h 52mn
Bit rate mode : Constant
Bit rate : 192 Kbps
Channel(s) : 2 channels
Sampling rate : 48.0 KHz
Compression mode : Lossy
Stream size : 154 MiB (12%)
Language : Russian
Default : Yes
Forced : No
info [Профиль]  [ЛС] 

Zloy_kot

Пол: Пол:Муж

Стаж: 2 года 6 месяцев

Сообщений: 4

Россия
Рейтинг

post 01-Июн-2014 14:34 (спустя 1 час 1 минута) [-]-2[+]

[Цитировать] 

В шапке 1/4я в описании 1/8...чезанах??????
info [Профиль]  [ЛС] 

Alex Ander

Пол: Пол:Муж

Стаж: 7 лет 5 месяцев

Сообщений: 2379

СССР
Рейтинг

post 01-Июн-2014 14:56 (спустя 22 минуты) [-]-1[+]

[Цитировать] 

забыл исправить

_________________
Лучше быть умным и иногда тупить, чем быть тупым и всё время умничать...
info [Профиль]  [ЛС] 
Показать сообщения:    
Ответить на тему

Текущее время: 05-Дек 06:30

Часовой пояс: GMT + 4



Вы не можете начинать темы
Вы не можете отвечать на сообщения
Вы не можете редактировать свои сообщения
Вы не можете удалять свои сообщения
Вы не можете голосовать в опросах
Вы не можете прикреплять файлы к сообщениям
Вы не можете скачивать файлы