Ошибка

КВН 2014. Высшая лига. Вторая 1/8 финала [2014 г., юмористическое ТВ-шоу, HDTVRip-AVC]

Ответить на тему
 
Автор Сообщение

Alex Ander

Пол: Пол:Муж

Стаж: 7 лет 5 месяцев

Сообщений: 2379

СССР
Рейтинг

post 01-Июн-2014 13:01 0[+]

[Цитировать] 

КВН 2014. Высшая лига. Вторая 1/8 финала

Год выпуска: 2014
Страна: Россия
Жанр: юмористическое ТВ-шоу
Продолжительность: 01:54:58

Дата игры: 11.02.2014
Дата эфира: 23.03.2014

Тема сезона: Перезагрузка
Тема игры: Весна

Команды:
    Сборная Дагестана (Махачкала), Саратов (Саратов), Рижские готы (Рига), Азия MIX (Бишкек), КемБридж (Кемерово)
Описание:
    Перезагрузка продолжается. Меняются времена года и вместе с ними меняется и тема игры. На сей раз тема игры "Весна" и, соответственно, шутки все о весне и весеннем обострении. Как и в первой игре более опытные команды соревнуются с новичками.
Жюри:
    Эдгард Запашный, Валдис Пельш, Дмитрий Нагиев, Михаил Галустян, Николай Фоменко, Михаил Ефремов, Юлий Гусман


Качество: HDTVRip
Формат: MKV
Видео кодек: H.264
Аудио кодек: MP3
Видео: 720x408 25 fps 1465 kpps
Аудио: 48.0 KHz, 2 ch 192 kbps
Приветствие Весне дорогу

Сборная Дагестана
- знакомство с командой
- дагестанский пит-стоп
- 8 марта в обычной дагестанской семье
- дагестанцы прилетают в Москву
- дагестанский супергерой
- дагестанские эмигранты в президентском номере "Метрополя"

Саратов и Алексей Неклюдов
- простой человек на приёме у мэра Саратова
- как разговаривают врачи
- аудиокниги жалоб и предложений
- новый голос Первого канала

Азия MIX
- у входа в бишкекский ночной клуб
- в подмосковном подпольном цеху
- в центре по подготовке мигрантов к экзаменам

Рижские готы
- представление команды
- семейный скандал
- недовольство Особи пополнением команды
- номер телефона Особи
- презентация олимпиады в Латвии

КемБридж
- устрашающий выход
- очередной состав команды
- Николай Фоменко рассказывает об отличиях болидов
- сын пришёл к отцу на работу на крупное предприятие
- тренировка легендарной советской хоккейной команды
- настоящий состав жюри

Биатлон Весенняя капель
Игра на вылет за целый балл. Но нервов и бессонных ночей на этот конкурс у команд уходит больше, чем на балл.

СТЭМ Весеннее обострение
Азия MIX
- восточный парень пригласил на свидание москвичку

Рижские готы
- свадьба шведской семьи

Саратов
- в отделе кадров крупной компании

Сборная Дагестана и Аркадий Укупник
- сборная Дагестана в 5 утра перед игрой

КемБридж
- постоянные помехи перед домашним свиданием с девушкой

Музыкальный номер В апрельский день

Сборная Дагестана
- открытие первого детского дагестанского телеканала

Саратов
- музыкальная телепрограмма "Музыкальный подвал"

КемБридж
- на что обижается женщина (Марк Бернес - "С чего начинается Родина")

Рижские готы
- поздравление работник с днём рождением от всего коллектива

Азия MIX
- песня мигранта о Москве
General
Unique ID : 215662509627382571265123415485195066925 (0xA23F16A911FD8B23B16B1ADA66399E2D)
Complete name :
Format : Matroska
Format version : Version 4 / Version 2
File size : 1.33 GiB
Duration : 1h 54mn
Overall bit rate : 1 659 Kbps
Encoded date : UTC 2014-03-24 07:04:14
Writing application : mkvmerge v6.8.0 ('Theme for Great Cities') 32bit built on Mar 2 2014 21:27:07
Writing library : libebml v1.3.0 + libmatroska v1.4.1
Attachment : Yes

Video
ID : 1
Format : AVC
Format/Info : Advanced Video Codec
Format profile : High@L3.1
Format settings, CABAC : Yes
Format settings, ReFrames : 8 frames
Codec ID : V_MPEG4/ISO/AVC
Duration : 1h 54mn
Bit rate : 1 465 Kbps
Width : 720 pixels
Height : 408 pixels
Display aspect ratio : 16:9
Original display aspect ratio : 16:9
Frame rate mode : Constant
Frame rate : 25.000 fps
Color space : YUV
Chroma subsampling : 4:2:0
Bit depth : 8 bits
Scan type : Progressive
Bits/(Pixel*Frame) : 0.199
Stream size : 1.15 GiB (86%)
Writing library : x264 core 128 r2216M 198a7ea
Encoding settings : cabac=1 / ref=9 / deblock=1:0:0 / analyse=0x3:0x133 / me=umh / subme=11 / psy=1 / psy_rd=1.00:0.20 / mixed_ref=1 / me_range=32 / chroma_me=1 / trellis=2 / 8x8dct=1 / cqm=0 / deadzone=21,11 / fast_pskip=0 / chroma_qp_offset=-3 / threads=6 / lookahead_threads=1 / sliced_threads=0 / nr=0 / decimate=1 / interlaced=0 / bluray_compat=0 / constrained_intra=0 / bframes=9 / b_pyramid=1 / b_adapt=2 / b_bias=0 / direct=3 / weightb=1 / open_gop=0 / weightp=2 / keyint=250 / keyint_min=25 / scenecut=40 / intra_refresh=0 / rc_lookahead=40 / rc=2pass / mbtree=1 / bitrate=1465 / ratetol=1.0 / qcomp=0.60 / qpmin=10 / qpmax=51 / qpstep=4 / cplxblur=20.0 / qblur=0.5 / ip_ratio=1.40 / aq=1:1.00
Language : Russian
Default : Yes
Forced : No

Audio
ID : 2
Format : MPEG Audio
Format version : Version 1
Format profile : Layer 2
Codec ID : A_MPEG/L2
Codec ID/Hint : MP2
Duration : 1h 54mn
Bit rate mode : Constant
Bit rate : 192 Kbps
Channel(s) : 2 channels
Sampling rate : 48.0 KHz
Compression mode : Lossy
Stream size : 158 MiB (12%)
Language : Russian
Default : Yes
Forced : No
info [Профиль]  [ЛС] 
Показать сообщения:    
Ответить на тему

Текущее время: 04-Дек 18:17

Часовой пояс: GMT + 4



Вы не можете начинать темы
Вы не можете отвечать на сообщения
Вы не можете редактировать свои сообщения
Вы не можете удалять свои сообщения
Вы не можете голосовать в опросах
Вы не можете прикреплять файлы к сообщениям
Вы не можете скачивать файлы