Ошибка

Лего. Фильм / The Lego Movie (Фил Лорд, Кристофер Миллер) [2014 г., мультфильм, фэнтези, комедия, приключения, семейный, HDRip]

Ответить на тему
 
Автор Сообщение

TERRAN1

Пол: Пол:Муж

Стаж: 4 года 2 месяца

Сообщений: 61

Россия
Рейтинг

post 29-Май-2014 00:27 0[+]

[Цитировать] 

Лего. Фильм / The Lego Movie


Год выпуска: 2014
Страна: Австралия, США, Дания / Warner Bros., Village Roadshow Pictures, LEGO
Жанр: мультфильм, фэнтези, комедия, приключения, семейный
Продолжительность: 01:40:33
Перевод: Профессиональный (полное дублирование)[Лицензия]

Режиссер: Фил Лорд, Кристофер Миллер

В ролях: Крис Прэтт, Уилл Феррелл, Элизабет Бэнкс, Уилл Арнетт, Лиам Нисон, Морган Фриман, Элисон Бри, Дэвид Берроуз, Энтони Дэниелс, Чарли Дэй

Описание: Обычная лего-фигурка, ошибочно считающая себя фигуркой из элитного набора, соглашается присоединиться к походу против злого лего-диктатора, планирующего склеить вместе всю вселенную…

Качество: HDRip
Формат: AVI
Видео кодек: XviD
Аудио кодек: AC3
Видео: 720x304 (2.37:1), 23.976 fps, XviD build 50 ~1552 kbps avg, 0.30 bit/pixel
Аудио: 48 kHz, AC3 Dolby Digital, 3/2 (L,C,R,l,r) + LFE ch, ~384.00 kbps avg
Сэмпл: http://multi-up.com/976766

Код:

Общее
Полное имя                               : D:\Downloads\Lego.Film.2014.D.HDRip.avi
Формат                                   : AVI
Формат/Информация                        : Audio Video Interleave
Размер файла                             : 1,37 Гбайт
Продолжительность                        : 1 ч. 40 м.
Общий поток                              : 1946 Кбит/сек
Программа кодирования                    : VirtualDubMod 1.5.10.3 | www.virtualdub-fr.org || (build 2550/release)
Библиотека кодирования                   : VirtualDubMod build 2550/release

Видео
Идентификатор                            : 0
Формат                                   : MPEG-4 Visual
Профиль формата                          : Advanced Simple@L5
Параметр BVOP формата                    : 2
Параметр QPel формата                    : Нет
Параметр GMC формата                     : Без точки перехода
Параметр матрицы формата                 : Выборочная
Идентификатор кодека                     : XVID
Идентификатор кодека/Подсказка           : XviD
Продолжительность                        : 1 ч. 40 м.
Битрейт                                  : 1553 Кбит/сек
Ширина                                   : 720 пикселей
Высота                                   : 304 пикселя
Соотношение сторон                       : 2,35:1
Частота кадров                           : 23,976 кадра/сек
Цветовое пространство                    : YUV
Субдискретизация насыщенности            : 4:2:0
Битовая глубина                          : 8 бит
Тип развёртки                            : Прогрессивная
Метод сжатия                             : С потерями
Бит/(Пиксели*Кадры)                      : 0.296
Размер потока                            : 1,09 Гбайт (80%)
Библиотека кодирования                   : XviD 1.2.1 (UTC 2008-12-04)

Аудио
Идентификатор                            : 1
Формат                                   : AC-3
Формат/Информация                        : Audio Coding 3
Расширение режима                        : CM (complete main)
Параметр Endianness формата              : Big
Идентификатор кодека                     : 2000
Продолжительность                        : 1 ч. 40 м.
Вид битрейта                             : Постоянный
Битрейт                                  : 384 Кбит/сек
Каналы                                   : 6 каналов
Расположение каналов                     : Front: L C R, Side: L R, LFE
Частота                                  : 48,0 КГц
Битовая глубина                          : 16 бит
Метод сжатия                             : С потерями
Размер потока                            : 276 Мбайт (20%)
Выравнивание                             : Разделение по промежуткам
Продолжительность промежутка             : 42  мс. (1,00 видеокадр)
Время предзагрузки промежутка            : 500  мс.
info [Профиль]  [ЛС] 

L

Пол: Пол:Муж

Стаж: 6 лет 7 месяцев

Сообщений: 10783

Украина
Рейтинг

post 29-Май-2014 14:32 (спустя 14 часов) [-]0[+]

[Цитировать] 

http://tapochek.net/viewtopic.php?p=1934708#1934708
Тоже самое

_________________
info [Профиль]  [ЛС] 

TERRAN1

Пол: Пол:Муж

Стаж: 4 года 2 месяца

Сообщений: 61

Россия
Рейтинг

post 29-Май-2014 17:29 (спустя 2 часа 57 минут) [-]0[+]

[Цитировать] 

L
Добавил
info [Профиль]  [ЛС] 

post 29-Май-2014 18:34 (спустя 1 час 5 минут) [-]0[+]

Топик был перенесен из форума Анонсы в форум Rips

L
 

substance

Пол: Пол:Муж

Стаж: 5 лет 5 месяцев

Сообщений: 103

Россия
Рейтинг

post 29-Май-2014 20:35 (спустя 3 часа) [-]0[+]

[Цитировать] 

Посмотрев всего 10 минут от мультфильма - вспомнился один мульт. Роботы.
Спасибо, за раздачу.
info [Профиль]  [ЛС] 

kurkah

Пол: Пол:Муж

Стаж: 6 лет 8 месяцев

Сообщений: 111

Россия
Рейтинг

post 30-Май-2014 00:57 (спустя 4 часа) [-]0[+]

[Цитировать] 

а 720р в ближайшем будущем ждать?
info [Профиль]  [ЛС] 

andrey7841

Пол: Пол:Муж

Стаж: 3 года 6 месяцев

Сообщений: 151

Россия
Рейтинг

post 30-Май-2014 11:00 (спустя 10 часов) [-]-2[+]

[Цитировать] 

kurkah писал(а):

а 720р в ближайшем будущем ждать?
Видео: 720x304
info [Профиль]  [ЛС] 

hexer22

Пол: Пол:Муж

Стаж: 6 лет 8 месяцев

Сообщений: 24

Россия
Рейтинг

post 30-Май-2014 11:18 (спустя 18 минут) [-]2[+]

[Цитировать] 

andrey7841 писал(а):

Видео: 720x304
720p это когда ширина 720 (1280х720 и иже с ним)
info [Профиль]  [ЛС] 

post 14-Сен-2014 10:48 (спустя 3 месяца 14 дней) [-]0[+]

Топик был перенесен из форума Новинки 2013-2014 (Rips) в форум Зарубежные полнометражные мультфильмы

L
 
Показать сообщения:    
Ответить на тему

Текущее время: 05-Дек 14:37

Часовой пояс: GMT + 4



Вы не можете начинать темы
Вы не можете отвечать на сообщения
Вы не можете редактировать свои сообщения
Вы не можете удалять свои сообщения
Вы не можете голосовать в опросах
Вы не можете прикреплять файлы к сообщениям
Вы не можете скачивать файлы