Ошибка

Реальная белка / The Nut Job (Питер Лепениотис) [2013, мультфильм, комедия, приключения, семейный, BDRip 720p]

Ответить на тему
 
Автор Сообщение

BZzz

Пол: Пол:Муж

Стаж: 5 лет 1 месяц

Сообщений: 3647

Россия
Рейтинг

post 22-Май-2014 21:05 0[+]

[Цитировать] 

Реальная белка / The Nut Job
«Береги свои орешки!»




Год выпуска: 2013
Страна: Канада , Корея Южная , США
Жанр: мультфильм, комедия, приключения, семейный
Продолжительность: 01:25:54
Перевод: Профессиональный (дублированный)[лицензия]

Режиссер: Питер Лепениотис

В ролях: Уилл Арнетт (Will Arnett), Брендан Фрейзер (Brendan Fraser), Лиам Нисон (Liam Neeson), Кэтрин Хайгл (Katherine Heigl), Стивен Лэнг (Stephen Lang), Майя Рудольф (Maya Rudolph), Джефф Данэм (Jeff Dunham), Гэбриел Иглесиас (Gabriel Iglesias)

Описание: Пытаясь выжить в городе, неразлучные друзья — белка Злюк и крысёнок Бадди натыкаются на магазин, до краёв набитый их любимым лакомством — орехами. Чувствуя, что «мечты сбываются», приятели планируют величайшее ограбление в истории грызунов. Но тут совсем некстати нарисовались бедные родственники из парка — прямо 13 друзей арахиса! Однако им всем невдомёк, что магазин орехов — лишь прикрытие для банды грабителей, которые намерены вырыть туннель под банк и подменить мешки с деньгами на мешки с теми самыми орехами.

Бюджет: $42 000 000
Сборы в США: $63 200 635
Сборы в мире: + $5 307 978 = $68 508 613
Рейтинг MPAA:



Качество: BDRip 720p
Формат: MKV
Видео кодек: AVC
Аудио кодек: AC3
Видео: 1280x696 (16:9), 23.976 fps, AVC, 2 894 Kbps
Аудио #1: Rus AC3, 448 Kbps, 48.0 KHz, 6 ch
Аудио #2: Eng DTS, 1 510 Kbps, 48.0 KHz, 6 ch
General
Complete name : Realnaya.Belka.2014.D.BDRip.720p.mkv
Format : Matroska
File size : 2.91 GiB
Duration : 1h 25mn
Overall bit rate : 4 851 Kbps
Encoded date : UTC 2014-05-22 13:50:56
Writing application : mkvmerge v6.5.0 ('Isn't she lovely') built on Oct 20 2013 12:50:05
Writing library : libebml v1.3.0 + libmatroska v1.4.1

Video
ID : 1
Format : AVC
Format/Info : Advanced Video Codec
Format profile : High@L4.1
Format settings, CABAC : Yes
Format settings, ReFrames : 5 frames
Muxing mode : Container profile=Unknown@4.1
Codec ID : V_MPEG4/ISO/AVC
Duration : 1h 25mn
Bit rate : 2 894 Kbps
Width : 1 280 pixels
Height : 696 pixels
Display aspect ratio : 16:9
Frame rate : 23.976 fps
Color space : YUV
Chroma subsampling : 4:2:0
Bit depth : 8 bits
Scan type : Progressive
Bits/(Pixel*Frame) : 0.135
Stream size : 1.68 GiB (58%)
Writing library : x264 core 140 r2377 1ca7bb9
Encoding settings : cabac=1 / ref=5 / deblock=1:0:0 / analyse=0x3:0x133 / me=umh / subme=7 / psy=1 / psy_rd=1.00:0.00 / mixed_ref=1 / me_range=16 / chroma_me=1 / trellis=1 / 8x8dct=1 / cqm=0 / deadzone=21,11 / fast_pskip=0 / chroma_qp_offset=-2 / threads=12 / lookahead_threads=2 / sliced_threads=0 / nr=0 / decimate=1 / interlaced=0 / bluray_compat=0 / constrained_intra=0 / bframes=3 / b_pyramid=2 / b_adapt=1 / b_bias=0 / direct=1 / weightb=1 / open_gop=0 / weightp=2 / keyint=250 / keyint_min=23 / scenecut=40 / intra_refresh=0 / rc_lookahead=40 / rc=2pass / mbtree=1 / bitrate=2894 / ratetol=1.0 / qcomp=0.60 / qpmin=0 / qpmax=69 / qpstep=4 / cplxblur=20.0 / qblur=0.5 / ip_ratio=1.40 / aq=1:1.00

Audio #1
ID : 2
Format : AC-3
Format/Info : Audio Coding 3
Mode extension : CM (complete main)
Codec ID : A_AC3
Duration : 1h 25mn
Bit rate mode : Constant
Bit rate : 448 Kbps
Channel(s) : 6 channels
Channel positions : Front: L C R, Side: L R, LFE
Sampling rate : 48.0 KHz
Bit depth : 16 bits
Stream size : 275 MiB (9%)

Audio #2
ID : 3
Format : DTS
Format/Info : Digital Theater Systems
Codec ID : A_DTS
Duration : 1h 25mn
Bit rate mode : Constant
Bit rate : 1 510 Kbps
Channel(s) : 6 channels
Channel positions : Front: L C R, Side: L R, LFE
Sampling rate : 48.0 KHz
Bit depth : 24 bits
Stream size : 928 MiB (31%)

Menu
00:00:00.000 : en:00:00:00.000
00:02:35.614 : en:00:02:35.614
00:05:24.574 : en:00:05:24.574
00:09:57.430 : en:00:09:57.430
00:14:58.481 : en:00:14:58.481
00:17:30.091 : en:00:17:30.091
00:22:18.837 : en:00:22:18.837
00:27:58.677 : en:00:27:58.677
00:32:01.169 : en:00:32:01.169
00:37:50.435 : en:00:37:50.435
00:40:19.042 : en:00:40:19.042
00:44:56.611 : en:00:44:56.611
00:48:14.266 : en:00:48:14.266
00:53:17.528 : en:00:53:17.528
00:58:14.991 : en:00:58:14.991
01:03:04.072 : en:01:03:04.072
01:08:48.624 : en:01:08:48.624
01:13:57.183 : en:01:13:57.183
01:19:32.059 : en:01:19:32.059
01:23:11.737 : en:01:23:11.737
info [Профиль]  [ЛС] 

post 25-Июн-2014 10:37 (спустя 1 месяц 2 дня) [-]0[+]

Топик был перенесен из форума DVD, HD DVD, Blu-ray, HD Rips, Web-DL в форум Зарубежное кино | HD Rips

L
 

post 25-Июн-2014 10:45 (спустя 1 месяц 2 дня) [-]0[+]

Топик был перенесен из форума Зарубежное кино | HD Rips в форум Мультфильмы (HD Video)

L
 
Показать сообщения:    
Ответить на тему

Текущее время: 06-Дек 14:18

Часовой пояс: GMT + 4



Вы не можете начинать темы
Вы не можете отвечать на сообщения
Вы не можете редактировать свои сообщения
Вы не можете удалять свои сообщения
Вы не можете голосовать в опросах
Вы не можете прикреплять файлы к сообщениям
Вы не можете скачивать файлы