Ошибка

Байонетта: Кровавая судьба / Bayonetta: Bloody Fate [Movie][2013][Приключения][BDRip][720p][Любительский (JAP+SUB)]

Ответить на тему
 
Автор Сообщение

L

Пол: Пол:Муж

Стаж: 6 лет 7 месяцев

Сообщений: 10757

Украина
Рейтинг

post 20-Май-2014 21:53 3[+]

[Цитировать] 

Байонетта: Кровавая судьба / Bayonetta: Bloody Fate / ベヨネッタ ブラッディフェイト

Год выпуска: 2013
Страна: Япония
Жанр: приключения
Продолжительность: 90 мин.
Озвучка:
  • двухголосая [Emeri&PriNce]
      Перевод на русский: blackbird1912
Субтитры: нет
Хардсаб: нет
Перевод на русский: [blackbird1912]
Режиссер: Кидзаки Фуминори / Kizaki Fuminori / 木﨑文智
Студия:
Описание:
Очаровательная главная героиня – Байонетта – единственная оставшаяся в живых представительница могущественного клана ведьм. Ей помогает проныра Энцо. В противниках – монстры и другие ведьмы, и некоторые из них кое-что знают о ее прошлом. Героиня отправляется в путешествие, но вместо желанных ответов получает все больше вопросов. Путь к истине будет нелегким.

Качество: BDRip [LE-Production]
Формат: MKV
Видео кодек: H264[8bit]
Аудио кодек: AC-3

Видео: 1280x720, 2 500 Kbps, 23.976 fps, 16:9
Аудио#1: RUS(int) AC-3, 640 Kbps, 48KHz, 6ch
Аудио#2: JAP AC-3, 640 Kbps, 48KHz, 6ch
Релиз от:
Format : Matroska
Format version : Version 4 / Version 2
File size : 2.38 GiB
Duration : 1h 30mn
Overall bit rate : 3 782 Kbps
Movie name : LE-Production
Encoded date : UTC 2014-04-07 12:22:37
Writing application : mkvmerge v6.8.0 ('Theme for Great Cities') 32bit built on Mar 2 2014 21:27:07
Writing library : libebml v1.3.0 + libmatroska v1.4.1

Video
ID : 1
Format : AVC
Format/Info : Advanced Video Codec
Format profile : High@L4.0
Format settings, CABAC : Yes
Format settings, ReFrames : 6 frames
Codec ID : V_MPEG4/ISO/AVC
Duration : 1h 30mn
Bit rate : 2 500 Kbps
Width : 1 280 pixels
Height : 720 pixels
Display aspect ratio : 16:9
Frame rate mode : Constant
Frame rate : 23.976 fps
Color space : YUV
Chroma subsampling : 4:2:0
Bit depth : 8 bits
Scan type : Progressive
Bits/(Pixel*Frame) : 0.113
Stream size : 1.53 GiB (64%)
Title : LE-Production
Writing library : x264 core 119 r2106 07efeb4
Encoding settings : cabac=1 / ref=6 / deblock=1:1:1 / analyse=0x3:0x113 / me=hex / subme=7 / psy=1 / psy_rd=0.40:0.00 / mixed_ref=1 / me_range=16 / chroma_me=1 / trellis=1 / 8x8dct=1 / cqm=0 / deadzone=21,11 / fast_pskip=1 / chroma_qp_offset=-2 / threads=12 / sliced_threads=0 / nr=0 / decimate=1 / interlaced=0 / bluray_compat=0 / constrained_intra=0 / bframes=5 / b_pyramid=2 / b_adapt=1 / b_bias=0 / direct=3 / weightb=1 / open_gop=0 / weightp=2 / keyint=250 / keyint_min=23 / scenecut=40 / intra_refresh=0 / rc_lookahead=40 / rc=2pass / mbtree=1 / bitrate=2500 / ratetol=1.0 / qcomp=0.60 / qpmin=0 / qpmax=69 / qpstep=4 / cplxblur=20.0 / qblur=0.5 / ip_ratio=1.40 / aq=1:0.60
Language : Japanese
Default : Yes
Forced : No

Audio #1
ID : 2
Format : AC-3
Format/Info : Audio Coding 3
Mode extension : CM (complete main)
Format settings, Endianness : Big
Codec ID : A_AC3
Duration : 1h 30mn
Bit rate mode : Constant
Bit rate : 640 Kbps
Channel count : 6 channels
Channel positions : Front: L C R, Side: L R, LFE
Sampling rate : 48.0 KHz
Bit depth : 16 bits
Compression mode : Lossy
Stream size : 413 MiB (17%)
Title : LE-Production(Emeri & PriNce)
Language : Russian
Default : Yes
Forced : No

Audio #2
ID : 3
Format : AC-3
Format/Info : Audio Coding 3
Mode extension : CM (complete main)
Format settings, Endianness : Big
Codec ID : A_AC3
Duration : 1h 30mn
Bit rate mode : Constant
Bit rate : 640 Kbps
Channel count : 6 channels
Channel positions : Front: L C R, Side: L R, LFE
Sampling rate : 48.0 KHz
Bit depth : 16 bits
Compression mode : Lossy
Stream size : 413 MiB (17%)
Language : Japanese
Default : No
Forced : No
info [Профиль]  [ЛС] 

Kriss_WaR

Пол: Пол:Муж

Стаж: 2 года 6 месяцев

Сообщений: 27

Украина
Рейтинг

post 20-Май-2014 22:33 (спустя 39 минут) [-]6[+]

[Цитировать] 

Спасибо! anime_46

_________________
Ночью заходили соседи, жаловались на шум. Я убрал их тела в мусоросжигатель.
info [Профиль]  [ЛС] 

Renix

Пол: Пол:Муж

Стаж: 6 лет 7 месяцев

Сообщений: 34

Украина
Рейтинг

post 20-Май-2014 22:45 (спустя 12 минут) [-]-11[+]

[Цитировать] 

Отэто бред. !
info [Профиль]  [ЛС] 

crazechkahu

Пол: Пол:Муж

Стаж: 7 лет 2 месяца

Сообщений: 289

Россия
Рейтинг

post 20-Май-2014 23:44 (спустя 58 минут) [-]0[+]

[Цитировать] 

как оно ? стоит того ?

_________________
Всё приходит с опытом
info [Профиль]  [ЛС] 

Orion999

Пол: Пол:Муж

Стаж: 6 лет 8 месяцев

Сообщений: 1556

Украина
Рейтинг

post 21-Май-2014 00:00 (спустя 16 минут) [-]1[+]

[Цитировать] 

ппц стоит

_________________
info [Профиль]  [ЛС] 

Sempaihentai

Пол: Пол:Муж

Стаж: 6 лет

Сообщений: 4

Япония
Рейтинг

post 21-Май-2014 06:23 (спустя 6 часов) [-]0[+]

[Цитировать] 

Невообразимая чушь. Только время зря потратил.
info [Профиль]  [ЛС] 
Показать сообщения:    
Ответить на тему

Текущее время: 03-Дек 10:51

Часовой пояс: GMT + 4



Вы не можете начинать темы
Вы не можете отвечать на сообщения
Вы не можете редактировать свои сообщения
Вы не можете удалять свои сообщения
Вы не можете голосовать в опросах
Вы не можете прикреплять файлы к сообщениям
Вы не можете скачивать файлы