Ошибка

Лего. Фильм / The Lego Movie (Фил Лорд, Кристофер Миллер) [2014, мультфильм, фэнтези, комедия, приключения, семейный, WEB-DLRip]

Ответить на тему
 
Автор Сообщение

BZzz

Пол: Пол:Муж

Стаж: 5 лет 1 месяц

Сообщений: 3647

Россия
Рейтинг

post 20-Май-2014 01:12 2[+]

[Цитировать] 

Лего. Фильм / The Lego Movie
«Кто был никем, тот всем ещё покажет»




Год выпуска: 2014
Страна: Австралия , США , Дания
Жанр: мультфильм, фэнтези, комедия, приключения, семейный
Продолжительность: 01:40:33
Перевод: Профессиональный (дублированный)[цифровая лицензия iTunes]
Субтитры: русские, украинские (полные и форсированные) - отдельно

Режиссер: Фил Лорд, Кристофер Миллер

В ролях: Крис Прэтт (Chris Pratt), Уилл Феррелл (Will Ferrell), Элизабет Бэнкс (Elizabeth Banks), Уилл Арнетт (Will Arnett), Лиам Нисон (Liam Neeson), Морган Фриман (Morgan Freeman), Крэйг Берри (Craig Berry), Элисон Бри (Alison Brie)

Описание: Обычная лего-фигурка соглашается присоединиться к походу против злого лего-диктатора, планирующего склеить вместе всю вселенную…

Бюджет: $60 000 000
Сборы в США: $254 317 293
Сборы в мире: + $206 400 000 = $460 717 293
Сборы в России: $6 175 462
Рейтинг MPAA:



Качество: WEB-DLRip
Формат: AVI
Видео кодек: XviD
Аудио кодек: AC3
Видео: 720x304 (2.35:1), 23.976 fps, XviD, 1 553 Kbps
Аудио #1: AC3, 384 Kbps, 48.0 KHz, 6 ch
General
Complete name : Lego.Film.2014.D.WEB-DLRip.avi
Format : AVI
Format/Info : Audio Video Interleave
File size : 1.37 GiB
Duration : 1h 40mn
Overall bit rate : 1 946 Kbps
Writing application : VirtualDubMod 1.5.10.3 | www.virtualdub-fr.org || (build 2550/release)
Writing library : VirtualDubMod build 2550/release

Video
ID : 0
Format : MPEG-4 Visual
Format profile : Advanced Simple@L5
Format settings, BVOP : Yes
Format settings, QPel : No
Format settings, GMC : No warppoints
Format settings, Matrix : Default (H.263)
Codec ID : XVID
Codec ID/Hint : XviD
Duration : 1h 40mn
Bit rate : 1 553 Kbps
Width : 720 pixels
Height : 304 pixels
Display aspect ratio : 2.35:1
Frame rate : 23.976 fps
Color space : YUV
Chroma subsampling : 4:2:0
Bit depth : 8 bits
Scan type : Progressive
Bits/(Pixel*Frame) : 0.296
Stream size : 1.09 GiB (80%)
Writing library : XviD 1.2.1 (UTC 2008-12-04)

Audio
ID : 1
Format : AC-3
Format/Info : Audio Coding 3
Mode extension : CM (complete main)
Codec ID : 2000
Duration : 1h 40mn
Bit rate mode : Constant
Bit rate : 384 Kbps
Channel(s) : 6 channels
Channel positions : Front: L C R, Side: L R, LFE
Sampling rate : 48.0 KHz
Bit depth : 16 bits
Stream size : 276 MiB (20%)
Alignment : Split accross interleaves
Interleave, duration : 42 ms (1.00 video frame)
Interleave, preload duration : 500 ms
info [Профиль]  [ЛС] 

ArteminEm

Пол: Пол:Муж

Стаж: 6 лет 11 месяцев

Сообщений: 155

Япония
Рейтинг

post 20-Май-2014 01:47 (спустя 34 минуты) [-]0[+]

[Цитировать] 

дождался!!
спасибо)

_________________
info [Профиль]  [ЛС] 

BZzz

Пол: Пол:Муж

Стаж: 5 лет 1 месяц

Сообщений: 3647

Россия
Рейтинг

post 20-Май-2014 16:00 (спустя 14 часов) [-]0[+]

[Цитировать] 

Субтитры: русские, украинские (полные и форсированные)
info [Профиль]  [ЛС] 

valerius06

Пол: Пол:Муж

Стаж: 3 года 7 месяцев

Сообщений: 112

Предупреждений: 1

Габон
Рейтинг

post 20-Май-2014 16:14 (спустя 14 минут) [-]-8[+]

[Цитировать] 

ArteminEm писал(а):

дождался!!
спасибо)
В магазинах не продают игрушки Lego?)
info [Профиль]  [ЛС] 

Gregorix

Пол: Пол:Муж

Стаж: 6 лет 7 месяцев

Сообщений: 20

Россия
Рейтинг

post 20-Май-2014 19:34 (спустя 3 часа) [-]0[+]

[Цитировать] 

Эх) осталось 3D релиза дождаться)
info [Профиль]  [ЛС] 

suji-san

Пол: Пол:Муж

Стаж: 7 лет 2 месяца

Сообщений: 69

Россия
Рейтинг

post 20-Май-2014 23:10 (спустя 3 часа) [-]0[+]

[Цитировать] 

а оригинальная озвучка есть?
info [Профиль]  [ЛС] 

BZzz

Пол: Пол:Муж

Стаж: 5 лет 1 месяц

Сообщений: 3647

Россия
Рейтинг

post 20-Май-2014 23:17 (спустя 7 минут) [-]1[+]

[Цитировать] 

suji-san писал(а):

а оригинальная озвучка есть?
есть отдельно, могу скинуть
info [Профиль]  [ЛС] 

BZzz

Пол: Пол:Муж

Стаж: 5 лет 1 месяц

Сообщений: 3647

Россия
Рейтинг

post 20-Май-2014 23:52 (спустя 35 минут) [-]2[+]

[Цитировать] 

Eng AAC LC, 192 Kbps, 48.0 KHz, 2 ch
info [Профиль]  [ЛС] 

suji-san

Пол: Пол:Муж

Стаж: 7 лет 2 месяца

Сообщений: 69

Россия
Рейтинг

post 21-Май-2014 00:55 (спустя 1 час 2 минуты) [-]1[+]

[Цитировать] 

Большое спасибо!
info [Профиль]  [ЛС] 

WISTIK1988

Пол: Пол:Муж

Стаж: 6 лет 2 месяца

Сообщений: 148

СССР
Рейтинг

post 21-Май-2014 01:57 (спустя 1 час 1 минута) [-]-1[+]

[Цитировать] 

Видимо я вырос из этого возраста... такие мульты вообще не прут=( пласмаски =(

_________________


Искусство секса - это умение поцеловать даму в нужное время в нужном месте.
info [Профиль]  [ЛС] 

Timoshenko

Пол: Пол:Муж

Стаж: 6 лет 9 месяцев

Сообщений: 1216

Предупреждений: 1

Рейтинг

post 21-Май-2014 09:53 (спустя 7 часов) [-]-1[+]

[Цитировать] 

на соседний ресурс уже давно 720 залили
info [Профиль]  [ЛС] 

BZzz

Пол: Пол:Муж

Стаж: 5 лет 1 месяц

Сообщений: 3647

Россия
Рейтинг

post 21-Май-2014 10:11 (спустя 18 минут) [-]0[+]

[Цитировать] 

Timoshenko писал(а):

на соседний ресурс уже давно 720 залили
http://tapochek.net/viewtopic.php?t=151505 пользуйтесь поиском хоть иногда.
info [Профиль]  [ЛС] 

xrepairs

Пол: Пол:Муж

Стаж: 4 года 11 месяцев

Сообщений: 223

Предупреждений: 4

Россия
Рейтинг

post 26-Май-2014 20:22 (спустя 5 дней) [-]0[+]

[Цитировать] 

Нефигово окупился.

_________________
ASROCK SC, Core i7 3930K 5.2 GHZ, 2x 690GTX,16gb Corsair Dominator 2666 mhz.
info [Профиль]  [ЛС] 

ZeroRacer

Пол: Пол:Муж

Стаж: 6 лет 8 месяцев

Сообщений: 248

Россия
Рейтинг

post 26-Май-2014 22:27 (спустя 2 часа 5 минут) [-]0[+]

[Цитировать] 

И что, интересный фильм, стоит посмотреть?
info [Профиль]  [ЛС] 

post 26-Июн-2014 20:46 (спустя 30 дней) [-]0[+]

Топик был перенесен из форума Rips в форум Зарубежное кино | Rips

koss555
 

post 11-Дек-2014 01:49 (спустя 6 месяцев 15 дней) [-]0[+]

Топик был перенесен из форума Зарубежное кино | Rips в форум Зарубежные полнометражные мультфильмы

BZzz
 
Показать сообщения:    
Ответить на тему

Текущее время: 11-Дек 06:19

Часовой пояс: GMT + 4



Вы не можете начинать темы
Вы не можете отвечать на сообщения
Вы не можете редактировать свои сообщения
Вы не можете удалять свои сообщения
Вы не можете голосовать в опросах
Вы не можете прикреплять файлы к сообщениям
Вы не можете скачивать файлы