Ошибка

Патэма наоборот / Sakasama no Patema / Patema Inverted [Movie][2013][Приключения, фантастика][BDRip][720p][RUS(int), JAP+SUB]

Ответить на тему
 
Автор Сообщение

L

Пол: Пол:Муж

Стаж: 6 лет 7 месяцев

Сообщений: 10779

Украина
Рейтинг

post 19-Май-2014 09:45 0[+]

[Цитировать] 

Патэма наоборот / Sakasama no Patema / Patema Inverted
"Нас спасет притяжение"

Страна: Япония
Год выпуска: 2013 г.
Жанр: Приключения, фантастика
Тип: Movie
Продолжительность: ~98 мин.
Озвучка:
  • Многоголосая, закадравая
    • Перевод на русский: Шейди
      Озвучивали: OVERLORDS & ArmorDRX & Mutsuko Air & Horie & Exevan [AniStar]
Субтитры:
  • Русские
    • от SuperJoe
    • от Sheydi Renger
  • Английские
    • Underwater
    • JnMBS

Режиссер: Ёсиура Ясухиро
Студия: Purple Cow Studio Japan
Описание: В результате некой произошедшей в прошлом катастрофы человечество разделилось на два народа. Для первого народа гравитация действует наоборот и его представители, а также используемые ими вещи падают в небеса. Однако, эти люди живут под землей, поэтому большой угрозы для них эта особенность не представляет. Для второго народа гравитация действует обычным образом и он живет на поверхности земли. Жизни этих двух народов практически не пересекаются и о существовании друг друга большая часть их представителей не знает. Однако, у живущих на поверхности людей есть история о том что в прошлом грешники улетели на небеса. Поэтому в обществе считается недопустимым смотреть на небо и следует направлять свой взгляд на землю.

Доп. информация: Информационные ссылки: AniDB || World Art || MAL
Качество: BDRip 720p | Wiki
Тип релиза: Без хардсаба
Формат видео: MKV
Видео: H.264, 1280x720, 5 700 Kbps, 23,976 fps, 8 bit
Аудио:
  • RUS: 48.0 Hz, AC3, 2.0 ch, 128 kbps
  • JAP: 48.0 Hz, AC3, 3/2 (L,C,R,l,r) + LFE ch, ~640 kbps
Субтитры: srt
Общее
Уникальный идентификатор : 172165981340263853011410762981866063359 (0x8185F63E36A89626B33C48A6386DC5FF)
Полное имя : D:\!Tapochek.net\!___\Patema.Naoborot.Bluray.720p.x264.ac3.dts.rus.jap@tapochek.net\Patema.Naoborot.Bluray.720p.x264.ac3.dts.rus.jap@tapochek.net.mkv
Формат : Matroska
Версия формата : Version 2
Размер файла : 4,47 Гбайт
Продолжительность : 1 ч. 38 м.
Общий поток : 6471 Кбит/сек
Название фильма : Tapochek.net: Патэма наоборот / Sakasama no Patema / Patema Inverted / サカサマのパテマ [2013 г.]
Дата кодирования : UTC 2014-05-19 05:33:32
Программа кодирования : mkvmerge v3.2.0 ('Beginnings') built on Feb 12 2010 16:46:17
Библиотека кодирования : libebml v0.7.9 + libmatroska v0.8.1
Attachment : Yes

Видео
Идентификатор : 1
Формат : AVC
Формат/Информация : Advanced Video Codec
Профиль формата : High@L4.1
Параметр CABAC формата : Да
Параметр ReFrames формата : 9 кадров
Идентификатор кодека : V_MPEG4/ISO/AVC
Продолжительность : 1 ч. 38 м.
Битрейт : 5700 Кбит/сек
Ширина : 1280 пикселей
Высота : 720 пикселей
Соотношение сторон : 16:9
Режим частоты кадров : Постоянный
Частота кадров : 23,976 кадра/сек
Цветовое пространство : YUV
Субдискретизация насыщенности : 4:2:0
Битовая глубина : 8 бит
Тип развёртки : Прогрессивная
Бит/(Пиксели*Кадры) : 0.258
Размер потока : 3,85 Гбайт (86%)
Библиотека кодирования : x264 core 129 r2245+704+36 8e61944 tMod+MixAQ [8-bit@4:2:0 X86_64]
Настройки программы : cabac=1 / ref=9 / deblock=1:-1:-1 / analyse=0x3:0x133 / me=umh / subme=11 / psy=1 / fade_compensate=0.00 / psy_rd=1.00:0.10 / mixed_ref=1 / me_range=32 / chroma_me=1 / trellis=2 / 8x8dct=1 / cqm=0 / deadzone=21,11 / fast_pskip=0 / chroma_qp_offset=-3 / threads=18 / lookahead_threads=3 / sliced_threads=0 / nr=0 / decimate=0 / interlaced=0 / bluray_compat=0 / constrained_intra=0 / fgo=0 / bframes=10 / b_pyramid=2 / b_adapt=2 / b_bias=0 / direct=3 / weightb=1 / open_gop=0 / weightp=2 / keyint=250 / keyint_min=23 / scenecut=40 / intra_refresh=0 / rc=2pass / mbtree=0 / bitrate=5700 / ratetol=1.0 / qcomp=0.70 / qpmin=0 / qpmax=69 / qpstep=4 / cplxblur=20.0 / qblur=0.5 / ip_ratio=1.40 / pb_ratio=1.30 / aq=3 / aq-strength=0.95 / aq-sensitivity=10.00 / aq-ifactor=1.00 / aq-pfactor=1.00 / aq-bfactor=1.00 / aq2=0
Язык : Japanese
Default : Нет
Forced : Нет

Аудио #1
Идентификатор : 2
Формат : AC-3
Формат/Информация : Audio Coding 3
Расширение режима : CM (complete main)
Параметр Endianness формата : Big
Идентификатор кодека : A_AC3
Продолжительность : 1 ч. 38 м.
Вид битрейта : Постоянный
Битрейт : 128 Кбит/сек
Каналы : 2 канала
Расположение каналов : Front: L R
Частота : 48,0 КГц
Битовая глубина : 16 бит
Метод сжатия : С потерями
Размер потока : 90,5 Мбайт (2%)
Заголовок : Многоголосый AniStar, AC3 2.0 ch @ 128 kbps
Язык : Russian
Default : Да
Forced : Нет

Аудио #2
Идентификатор : 3
Формат : AC-3
Формат/Информация : Audio Coding 3
Расширение режима : CM (complete main)
Параметр Endianness формата : Big
Идентификатор кодека : A_AC3
Продолжительность : 1 ч. 38 м.
Вид битрейта : Постоянный
Битрейт : 640 Кбит/сек
Каналы : 6 каналов
Расположение каналов : Front: L C R, Side: L R, LFE
Частота : 48,0 КГц
Битовая глубина : 16 бит
Метод сжатия : С потерями
Размер потока : 452 Мбайт (10%)
Заголовок : Оригинал, AC3 5.1 @ 640 kbps
Язык : Japanese
Default : Нет
Forced : Нет

Меню
00:00:00.000 : :00:00:00.000
00:07:46.883 : :00:07:46.883
00:13:11.541 : :00:13:11.541
00:21:30.789 : :00:21:30.789
00:25:52.551 : :00:25:52.551
00:32:02.129 : :00:32:02.129
00:37:09.436 : :00:37:09.436
00:44:14.527 : :00:44:14.527
00:52:14.757 : :00:52:14.757
00:56:54.953 : :00:56:54.953
01:03:51.953 : :01:03:51.953
01:11:01.174 : :01:11:01.174
01:19:04.073 : :01:19:04.073
01:25:03.265 : :01:25:03.265
01:32:39.554 : :01:32:39.554


info [Профиль]  [ЛС] 

ZerotakerZX

Стаж: 5 лет 4 месяца

Сообщений: 717

Рейтинг

post 19-Май-2014 15:45 (спустя 6 часов) [-]11[+]

[Цитировать] 

Новое аниме, и оно не про трусы, не про сиське, не про школьников, не про лолей? НАДО СКАЧАТЬ!
info [Профиль]  [ЛС] 

witchercerber

Пол: Пол:Муж

Стаж: 7 лет 1 месяц

Сообщений: 28

Россия
Рейтинг

post 19-Май-2014 19:45 (спустя 3 часа) [-]0[+]

[Цитировать] 

тема с гравитацией похожа на фильм "параллельные миры"

_________________
info [Профиль]  [ЛС] 

RINGARD

Стаж: 6 лет 10 месяцев

Сообщений: 84

Рейтинг

post 19-Май-2014 20:04 (спустя 19 минут) [-]0[+]

[Цитировать] 

WARNING -- F*ck the physics!
*
Людям имеющим понятие\образование\понимание физики гравитации и\или её аспектов настоятельно рекомендуется отключить мозг во время просмотра, как вариант привяжите к ладони руки падушку, дабы не разбить лицо фейспалмом.
*
-\\чувак с ЧМТ.
info [Профиль]  [ЛС] 

MiloRU

Пол: Пол:Муж

Стаж: 6 лет 7 месяцев

Сообщений: 84

Предупреждений: 1

Россия
Рейтинг

post 19-Май-2014 20:15 (спустя 11 минут) [-]1[+]

[Цитировать] 

Почему на анимэ нету золотых или серебряных раздач?
info [Профиль]  [ЛС] 

Suine

Стаж: 3 года

Сообщений: 8

Россия
Рейтинг

post 19-Май-2014 20:42 (спустя 26 минут) [-]8[+]

[Цитировать] 

Отличная работа. Посмотрела и получила море удовольствия. Спасибо.
info [Профиль]  [ЛС] 

woawhk

Пол: Пол:Муж

Стаж: 6 лет 7 месяцев

Сообщений: 25

Россия
Рейтинг

post 28-Май-2014 18:00 (спустя 8 дней) [-]0[+]

[Цитировать] 

Перед просмотром советую привязать себя по крепче к стулу, а людям с нарушением вестибулярного аппарата взять в руки пакетик Улыбаюсь
info [Профиль]  [ЛС] 
Показать сообщения:    
Ответить на тему

Текущее время: 04-Дек 16:19

Часовой пояс: GMT + 4



Вы не можете начинать темы
Вы не можете отвечать на сообщения
Вы не можете редактировать свои сообщения
Вы не можете удалять свои сообщения
Вы не можете голосовать в опросах
Вы не можете прикреплять файлы к сообщениям
Вы не можете скачивать файлы