Ошибка

До окончания фрилича осталось:


Зимние каникулы Пикачу 1999,2000,2001 /Pikachu's Winter Vacation 1999,2000,2001 [OVA] [1998-2000] [приключения, комедия] [DVDRip,TVRip] [Субтитры (ENG)]

Ответить на тему
 
Автор Сообщение

Teodor Cartman

Пол: Пол:Муж

Стаж: 2 года 10 месяцев

Сообщений: 55

Россия
Рейтинг

post 12-Май-2014 15:11 0[+]

[Цитировать] 

Зимние каникулы Пикачу 1999,2000,2001 /Pikachu's Winter Vacation 1999,2000,2001
Зимние каникулы Пикачу 1999/Pikachu's Winter Vacation 1999/Pocket Monsters: Pikachu no Fuyuyasumi 1999

Год выпуска: 1998
Выпущено: Япония, Oriental Light and Magic
Жанр: приключения, комедия
Продолжительность: 00:19:06
Перевод: Английский
Субтитры: есть, русские, вшитые
Релиз субтитров: Teodor Cartman, viaDEM
Режиссер: Юяма Кунихико
Роли озвучивали: Рика Мацумото, Икуэ Отани, Маюми Иидзука, Мэгуми Хаясибара, Синъитиро Мики, Инуко Инуяма, Тинами Нисимура, Унсе Исидзука
Описание:
01. The Cabin (Christmas Night)
02. Kanga Games (Winter Games)



Качество: DVDRip
Формат:MKV
Видео кодек: XviD
Аудио кодек: MP3
Видео: 720x544 23.976fps 2339kbps 8 bits
Аудио: English 48000Hz 2 channels 128kbps
General
Unique ID : 223777725170261888711476194226152949358 (0xA85A05AD89AC4EEF9A78BADAC4AC466E)
Complete name : Pikachus_Winter_Vacation_1999.mkv
Format : Matroska
Format version : Version 4 / Version 2
File size : 342 MiB
Duration : 19mn 6s
Overall bit rate mode : Variable
Overall bit rate : 2 502 Kbps
Encoded date : UTC 2014-05-06 07:59:01
Writing application : mkvmerge v6.8.0 ('Theme for Great Cities') 32bit built on Mar 2 2014 21:27:07
Writing library : libebml v1.3.0 + libmatroska v1.4.1

Video
ID : 1
Format : MPEG-4 Visual
Format profile : Advanced Simple@L5
Format settings, BVOP : Yes
Format settings, QPel : No
Format settings, GMC : No warppoints
Format settings, Matrix : Custom
Codec ID : V_MS/VFW/FOURCC / XVID
Codec ID/Hint : XviD
Duration : 19mn 6s
Bit rate : 2 339 Kbps
Width : 720 pixels
Height : 544 pixels
Display aspect ratio : 4:3
Frame rate mode : Constant
Frame rate : 23.976 fps
Color space : YUV
Chroma subsampling : 4:2:0
Bit depth : 8 bits
Scan type : Progressive
Compression mode : Lossy
Bits/(Pixel*Frame) : 0.249
Stream size : 320 MiB (94%)
Writing library : XviD 1.2.1 (UTC 2008-12-04)
Default : Yes
Forced : No

Audio
ID : 2
Format : MPEG Audio
Format version : Version 1
Format profile : Layer 3
Mode : Joint stereo
Mode extension : MS Stereo
Codec ID : A_MPEG/L3
Codec ID/Hint : MP3
Duration : 39mn 53s
Bit rate mode : Variable
Bit rate : 113 Kbps
Nominal bit rate : 128 Kbps
Channel(s) : 2 channels
Sampling rate : 48.0 KHz
Compression mode : Lossy
Stream size : 32.2 MiB (9%)
Writing library : LAME3.98r
Encoding settings : -m j -V 4 -q 2 -lowpass 17 --abr 128
Default : Yes
Forced : No

Text
ID : 3
Format : ASS
Codec ID : S_TEXT/ASS
Codec ID/Info : Advanced Sub Station Alpha
Compression mode : Lossless
Title : RusSub_VTC
Language : Russian
Default : Yes
Forced : No
Зимние каникулы Пикачу 2000/Pikachu's Winter Vacation 2000/Pocket Monsters: Pikachu no Fuyuyasumi 2000

Год выпуска: 1999
Выпущено: Япония, Oriental Light and Magic
Жанр: приключения, комедия
Продолжительность: 00:20:47
Перевод: Английский
Субтитры: есть, русские, вшитые
Релиз субтитров: Teodor Cartman, viaDEM
Режиссер: Юяма Кунихико
Роли озвучивали: Рика Мацумото, Икуэ Отани, Маюми Иидзука, Мэгуми Хаясибара, Синъитиро Мики, Инуко Инуяма, Тинами Нисимура, Унсе Исидзука
Описание:
01. Winter Games
02. Stantler's Little Helpers



Качество: DVDRip
Формат:MKV
Видео кодек: XviD
Аудио кодек: MP3
Видео: 720x544 23.976fps 2388kbps 8 bits
Аудио: English 48000Hz 2 channels 128kbps
General
Unique ID : 208525047788817058142135841628373133901 (0x9CE0769F5BEB10309270AE15BF9C2A4D)
Complete name : Pikachus_Winter_Vacation_2000.mkv
Format : Matroska
Format version : Version 4 / Version 2
File size : 355 MiB
Duration : 20mn 47s
Overall bit rate mode : Variable
Overall bit rate : 2 388 Kbps
Encoded date : UTC 2014-05-06 09:43:38
Writing application : mkvmerge v6.8.0 ('Theme for Great Cities') 32bit built on Mar 2 2014 21:27:07
Writing library : libebml v1.3.0 + libmatroska v1.4.1

Video
ID : 2
Format : MPEG-4 Visual
Format profile : Simple@L1
Format settings, BVOP : No
Format settings, QPel : No
Format settings, GMC : No warppoints
Format settings, Matrix : Default (H.263)
Codec ID : V_MS/VFW/FOURCC / XVID
Codec ID/Hint : XviD
Duration : 20mn 47s
Width : 720 pixels
Height : 544 pixels
Display aspect ratio : 4:3
Frame rate mode : Constant
Frame rate : 23.976 fps
Original frame rate : 8.782 fps
Color space : YUV
Chroma subsampling : 4:2:0
Bit depth : 8 bits
Scan type : Progressive
Compression mode : Lossy
Writing library : XviD 1.2.1 (UTC 2008-12-04)
Default : Yes
Forced : No

Audio
ID : 3
Format : MPEG Audio
Format version : Version 1
Format profile : Layer 3
Mode : Joint stereo
Mode extension : MS Stereo
Codec ID : A_MPEG/L3
Codec ID/Hint : MP3
Duration : 20mn 47s
Bit rate mode : Variable
Channel(s) : 2 channels
Sampling rate : 48.0 KHz
Compression mode : Lossy
Default : Yes
Forced : No

Text
ID : 1
Format : ASS
Codec ID : S_TEXT/ASS
Codec ID/Info : Advanced Sub Station Alpha
Compression mode : Lossless
Title : RusSub_VTC
Language : Russian
Default : Yes
Forced : No
Зимние каникулы Пикачу 2001/Pikachu's Winter Vacation 2001/Pocket Monsters: Pikachu no Fuyuyasumi 2001

Год выпуска: 2000
Выпущено: Япония, Oriental Light and Magic
Жанр: приключения, комедия
Продолжительность: 00:19:06
Перевод: Английский
Субтитры: есть, русские, вшитые
Релиз субтитров: Teodor Cartman, viaDEM
Режиссер: Юяма Кунихико
Роли озвучивали: Рика Мацумото, Икуэ Отани, Маюми Иидзука, Мэгуми Хаясибара, Синъитиро Мики, Инуко Инуяма, Тинами Нисимура, Унсе Исидзука
Описание:
01. Delibird's Dilemma
02. Snorlax Snowman
03. Trouble in Big Town (We The Pichu Brothers)

Pikachus_Winter_Vacation_2001_Part_1
Качество: TVRip
Формат:MKV
Видео: DivX 640x360 23.976fps 834kbps 8 bits
Аудио: MP3 English 48000Hz 2 channels 128kbps
General
Unique ID : 181750114762308581370816546672974748109 (0x88BBCC80E2FD7D80BF42C9B664D7D9CD)
Complete name : E:\Share\Новая папка2\Pikachus_Winter_Vacation_2001_Part_1.mkv
Format : Matroska
Format version : Version 4 / Version 2
File size : 134 MiB
Duration : 19mn 7s
Overall bit rate : 981 Kbps
Encoded date : UTC 2014-05-12 10:43:21
Writing application : mkvmerge v6.8.0 ('Theme for Great Cities') 32bit built on Mar 2 2014 21:27:07
Writing library : libebml v1.3.0 + libmatroska v1.4.1

Video
ID : 1
Format : MPEG-4 Visual
Format profile : Advanced Simple@L5
Format settings, BVOP : Yes
Format settings, QPel : No
Format settings, GMC : No warppoints
Format settings, Matrix : Default (H.263)
Codec ID : V_MS/VFW/FOURCC / DIVX
Codec ID/Info : Project Mayo
Codec ID/Hint : DivX 4
Duration : 19mn 7s
Bit rate : 834 Kbps
Width : 640 pixels
Height : 360 pixels
Display aspect ratio : 16:9
Frame rate mode : Constant
Frame rate : 23.976 fps
Color space : YUV
Chroma subsampling : 4:2:0
Bit depth : 8 bits
Scan type : Progressive
Compression mode : Lossy
Bits/(Pixel*Frame) : 0.151
Stream size : 114 MiB (85%)
Writing library : XviD 1.1.0 (UTC 2005-11-22)
Default : Yes
Forced : No

Audio
ID : 2
Format : MPEG Audio
Format version : Version 1
Format profile : Layer 3
Mode : Joint stereo
Mode extension : MS Stereo
Codec ID : A_MPEG/L3
Codec ID/Hint : MP3
Duration : 19mn 7s
Bit rate mode : Constant
Bit rate : 128 Kbps
Channel(s) : 2 channels
Sampling rate : 48.0 KHz
Compression mode : Lossy
Stream size : 17.5 MiB (13%)
Default : Yes
Forced : No

Text
ID : 3
Format : ASS
Codec ID : S_TEXT/ASS
Codec ID/Info : Advanced Sub Station Alpha
Compression mode : Lossless
Title : RusSub_VTC
Language : Russian
Default : Yes
Forced : No

Pikachus_Winter_Vacation_2001_Part_2
Качество: DVDRip
Формат:MKV
Видео: DivX 640x480 25.000fps 1213kbps 8 bits
Аудио: MP3 English 48000Hz 2 channels 128kbps
General
Unique ID : 211428596487300126032920734219782084625 (0x9F0FAAA03BB7D56690EFC75889E85811)
Complete name : Pikachus_Winter_Vacation_2001_Part_2.mkv
Format : Matroska
Format version : Version 4 / Version 2
File size : 195 MiB
Duration : 19mn 56s
Overall bit rate : 1 368 Kbps
Encoded date : UTC 2014-05-11 07:02:15
Writing application : mkvmerge v6.8.0 ('Theme for Great Cities') 32bit built on Mar 2 2014 21:27:07
Writing library : libebml v1.3.0 + libmatroska v1.4.1

Video
ID : 1
Format : MPEG-4 Visual
Format settings, BVOP : Yes
Format settings, QPel : No
Format settings, GMC : No warppoints
Format settings, Matrix : Default (H.263)
Codec ID : V_MS/VFW/FOURCC / DX50
Codec ID/Hint : DivX 5
Duration : 19mn 56s
Bit rate : 1 213 Kbps
Width : 640 pixels
Height : 480 pixels
Display aspect ratio : 4:3
Frame rate mode : Constant
Frame rate : 25.000 fps
Color space : YUV
Chroma subsampling : 4:2:0
Bit depth : 8 bits
Scan type : Progressive
Compression mode : Lossy
Bits/(Pixel*Frame) : 0.158
Stream size : 173 MiB (89%)
Writing library : DivX 5.2.1 (DrDivX 106) (UTC 2004-09-08)
Default : Yes
Forced : No

Audio
ID : 2
Format : MPEG Audio
Format version : Version 1
Format profile : Layer 3
Mode : Joint stereo
Mode extension : MS Stereo
Codec ID : A_MPEG/L3
Codec ID/Hint : MP3
Duration : 19mn 56s
Bit rate mode : Constant
Bit rate : 128 Kbps
Channel(s) : 2 channels
Sampling rate : 48.0 KHz
Compression mode : Lossy
Stream size : 18.3 MiB (9%)
Default : Yes
Forced : No

Text
ID : 3
Format : ASS
Codec ID : S_TEXT/ASS
Codec ID/Info : Advanced Sub Station Alpha
Compression mode : Lossless
Title : RusSub_VTC
Language : Russian
Default : Yes
Forced : No
#01 Покемон [ТВ] - ТВ (276 эп.), первый сезон, 1997
#02 Покемон (фильм 01) - п/ф, spinoff (ответвление сюжета) сериала, 1998
#03 Pikachu no Natsuyasumi - к/ф, приложение к первому фильму, 1998
#04 Pikachu no Fuyuyasumi (1999) - OVA (2 эп.), spinoff (ответвление сюжета) сериала, 1998
#05 Покемон (фильм 02) - п/ф, spinoff (ответвление сюжета) сериала, 1999
#06 Pocket Monsters: Pikachu Tankentai - к/ф, приложение ко второму фильму, 1999
#07 Pikachu no Fuyuyasumi (2000) - OVA (2 эп.), spinoff (ответвление сюжета) сериала, 1999
#08 Покемон (фильм 03) - п/ф, spinoff (ответвление сюжета) сериала, 2000
#09 Pichu to Pikachu - к/ф, приложение к третьему фильму, 2000
#10 Pikachu no Fuyuyasumi (2001) - OVA (3 эп.), spinoff (ответвление сюжета) сериала, 2000
#11 Pocket Monsters: Mewtwo! Ware wa Koko ni Ari - ТВ-спэшл (1 эп.), spinoff (ответвление сюжета) сериала, 2000
#12 Pocket Monsters Crystal: Raikou Ikazuchi no Densetsu - ТВ-спэшл (1 эп.), spinoff (ответвление сюжета) сериала, 2001
#13 Покемон (фильм 04) - п/ф, spinoff (ответвление сюжета) сериала, 2001
#14 Pikachu no Dokidoki Kakurenbo - к/ф, приложение к четвёртому фильму, 2001
#15 Покемон (фильм 05) - п/ф, spinoff (ответвление сюжета) сериала, 2002
#16 Pika Pika Hoshizora Camp - к/ф, приложение к пятому фильму, 2002
#17 Pocket Monsters Side Stories - ТВ (16 эп.), spinoff (ответвление сюжета) сериала, 2002
#18 Pocket Monsters Advanced Generation - ТВ (193 эп.), второй сезон, 2002
#19 Покемон (фильм 06): Дзирати - исполнитель желаний - п/ф, spinoff (ответвление сюжета) сериала, 2003
#20 Odoru Pokemon Himitsu Kichi - к/ф, приложение к шестому фильму, 2003
#21 Покемон (фильм 07) - п/ф, spinoff (ответвление сюжета) сериала, 2004
#22 Pikachu no Natsumatsuri - к/ф, приложение к седьмому фильму, 2004
#23 Покемон (фильм 08) - п/ф, spinoff (ответвление сюжета) сериала, 2005
#24 Pokemon 3D Adventure: Mew o Sagase! - к/ф, spinoff (ответвление сюжета) сериала, 2005
#25 Pikachu no Obake Carnival - к/ф, приложение к восьмому фильму, 2005
#26 Покемон (фильм 09) - п/ф, spinoff (ответвление сюжета) сериала, 2006
#27 Pikachu no Wanpaku Island - к/ф, приложение к девятому фильму, 2006
#28 Senritsu no Mirage Pokemon - ТВ-спэшл, spinoff (ответвление сюжета) сериала, 2006
#29 Pokemon 3D Adventure 2: Pikachu no Kaitei Daibouken - к/ф, spinoff (ответвление сюжета) сериала, 2006
#30 Pokemon Fushigi no Dungeon Shutsudo Pokemon Kyujotai Ganbarus! - ТВ-спэшл, spinoff (ответвление сюжета) сериала, 2006
#31 Покемон: Алмаз и Жемчуг - ТВ (191 эп.), третий сезон, 2006
#32 Покемон (фильм 10) - п/ф, spinoff (ответвление сюжета) сериала, 2007
#33 Pikachu Tanken Club - к/ф, приложение к десятому фильму, 2007
#34 Pokemon Fushigi no Dungeon: Toki no Tankentai, Yami no Tankentai - ТВ-спэшл, spinoff (ответвление сюжета) сериала, 2007
#35 Покемон (фильм 11) - п/ф, spinoff (ответвление сюжета) сериала, 2008
#36 Pikachu Koori no Daibouken - к/ф, приложение к 11-му фильму, 2008
#37 Покемон (фильм 12) - п/ф, spinoff (ответвление сюжета) сериала, 2009
#38 Pikachu no Kirakira Daisousaku! - к/ф, приложение к 12-му фильму, 2009
#39 Покемон (фильм 13) - п/ф, spinoff (ответвление сюжета) сериала, 2010
#40 Pikachu no Fushigi na Fushigi na Daibouken - к/ф, дополнение, 2010
#41 Pokemon Ranger: Hikari no Kiseki - ONA (2 эп.), дополнение, 2010
#42 Pocket Monsters: Best Wishes - ТВ (84 эп.), четвертый сезон, 2010
#43 Покемон (фильм 14-1) - п/ф, spinoff (ответвление сюжета) сериала, 2011
#44 Покемон (фильм 14-2) - п/ф, spinoff (ответвление сюжета) сериала, 2011
#45 Pikachu no Summer Bridge Story - к/ф, дополнение, 2011
#46 Покемон (фильм 15) - п/ф, spinoff (ответвление сюжета) сериала, 2012
#47 Meloetta no Kirakira Recital - к/ф, приложение к фильму, 2012
#48 Utae Meloetta: Rinka no Mi o Sagase - OVA (1 эп.), предыстория, 2012
#49 Pocket Monsters: Best Wishes Season 2 - ТВ (24 эп.), пятый сезон, 2012
#50 Pocket Monsters: Best Wishes Season 2 Episode N - ТВ (14 эп.), продолжение, 2013
#51 Gekijouban Pocket Monsters: Best Wishes - Shinsoku no Genosect: Mewtwo Kakusei - п/ф, spinoff (ответвление сюжета) сериала, 2013
#52 Mewtwo: Kakusei e no Prologue - ТВ-спэшл, предыстория фильма, 2013
#53 Pikachuu to Eievui Friends - к/ф, приложение к фильму, 2013
#54 Pocket Monsters: Best Wishes! Season 2 - Decolora Adventure - ТВ (20 эп.), продолжение, 2013
#55 Pocket Monsters: The Origin - ТВ (4 эп.), дополнение, 2013
#56 Pocket Monsters XY - ТВ (>33 эп.), продолжение, 2013
#57 Pocket Monsters XY: Hakai no Mayu to Diancie - п/ф, spinoff (ответвление сюжета), 2014
#58 Pikachu, Kore Nan no Kagi? - к/ф, дополнение, 2014
1. Pocket Monsters TV (1-73 серия)[Покемон: Лига Индиго]
2. Pikachu no Natsuyasumi к/ф, приложение к первому фильму, 1998
3. Mewtwo Strikes Back п/ф, spinoff (ответвление сюжета) сериала, 1998
4. Pocket Monsters TV (74 серия)[Покемон: Лига Индиго]
5. Pikachu’s Fuyuyasumi OVA (2 эп.), spinoff (ответвление сюжета) сериала, 1998
6. Pocket Monsters TV (75 – 82 серия)[Покемон: Лига Индиго]
7. Pocket Monsters TV (83 - 107 серия) [Покемон: Оранжевая лига]
8. Pocket Monsters: Pikachu Tankentai к/ф, приложение ко второму фильму, 1999
9. Yadoking's Day. (был показ только в Японии) ТВ-спэшл
10. The Power of One п/ф, spinoff (ответвление сюжета) сериала, 1999
11. Pocket Monsters TV (108 – 118 серия)[Покемон: Оранжевая лига]
12. Pocket Monsters TV (119 - 128 серия) [Покемон: Путешествие в Джото]
13. Pikachu’s Fuyuyasumi 2000 OVA (2 эп.), spinoff (ответвление сюжета) сериала, 1999
14. Pocket Monsters TV (129 - 157 серия)[Покемон: Путешествие в Джото]
15. Pichu to Pikachu к/ф, приложение к третьему фильму, 2000
16. Spell of the Unown п/ф, spinoff (ответвление сюжета) сериала, 2000
17. Pocket Monsters TV (158 – 159 серия)[Покемон: Путешествие в Джото]
18. Pocket Monsters TV (160 - 180 серия)[Покемон: Чемпионы лиги Джото]
19. Pikachu’s Fuyuyasumi 2001 OVA (3 эп.), spinoff (ответвление сюжета) сериала, 2000
20. Pokemon: Mewtwo Returns ТВ-спэшл (1 эп.), spinoff (ответвление сюжета) сериала, 2000
21. Pocket Monsters TV (181 - 207 серия)[Покемон: Чемпионы лиги Джото]
22. Pikachu no Dokidoki Kakurenbo к/ф, приложение к четвёртому фильму, 2001
23. Celebi the Voice of the Forest п/ф, spinoff (ответвление сюжета) сериала, 2001
24. Pocket Monsters TV (208 – 211 серия)[Покемон: Чемпионы лиги Джото]
25. Pocket Monsters TV (212 - 232 серия)[Покемон: Путь Мастера]
26. Pokemon Crystal: Raikou The Legend of Thunderbolt ТВ-спэшл (1 эп.), spinoff (ответвление сюжета) сериала
27. Pocket Monsters TV (233 - 258 серия)[Покемон: Путь Мастера]
28. Pika Pika Hoshizora Camp к/ф, приложение к пятому фильму, 2002
29. Pokemon Heroes п/ф, spinoff (ответвление сюжета) сериала, 2002
30. Pocket Monsters TV (259 - 276 серия)[Покемон: Путь Мастера]


info [Профиль]  [ЛС] 

post 16-Май-2014 22:31 (спустя 4 дня) [-]0[+]

Топик был перенесен из форума Анонсы в форум Аниме (Основной)

Алмаз
 

Kolyabus

Пол: Пол:Муж

Стаж: 7 лет 2 месяца

Сообщений: 93

Россия
Рейтинг

post 17-Май-2014 05:19 (спустя 4 дня) [-]0[+]

[Цитировать] 

Американщина, тьфу, хоть и не большой любитель пика-пика, но все же засрать они таки умудрились.
info [Профиль]  [ЛС] 

Pharaon

Пол: Пол:Муж

Стаж: 7 лет 6 месяцев

Сообщений: 5844

Рейтинг

post 17-Май-2014 09:28 (спустя 4 часа) [-]0[+]

[Цитировать] 

Читаем правила раздела.

Цитата:

13.4 Запрещено создавать антологии аниме сериалов, фильмов и манги. Создание антологии не допустимы ни в каком виде.
info [Профиль]  [ЛС] 

Teodor Cartman

Пол: Пол:Муж

Стаж: 2 года 10 месяцев

Сообщений: 55

Россия
Рейтинг

post 18-Май-2014 00:19 (спустя 14 часов) [-]0[+]

[Цитировать] 

Kolyabus
были бы рады перевести японскую дорожку, но .... какой материал нашли, такой уж нашли!

добавлено спустя 2 часа 14 минут 30 секунд:

Pharaon
Всё, исправил грубейшую ошибку! Впредь обязуюсь не допускать сего. kolob_117
info [Профиль]  [ЛС] 
Показать сообщения:    
Ответить на тему

Текущее время: 10-Дек 16:48

Часовой пояс: GMT + 4



Вы не можете начинать темы
Вы не можете отвечать на сообщения
Вы не можете редактировать свои сообщения
Вы не можете удалять свои сообщения
Вы не можете голосовать в опросах
Вы не можете прикреплять файлы к сообщениям
Вы не можете скачивать файлы