Ошибка

До окончания фрилича осталось:


Приключения мистера Пибоди и Шермана / Mr. Peabody & Sherman (Роб Минкофф) [2014, Мультфильм, фантастика, комедия, приключения, семейный, WEB-DLRip] iTunes

Ответить на тему
 
Автор Сообщение

L

Пол: Пол:Муж

Стаж: 6 лет 8 месяцев

Сообщений: 10838

Украина
Рейтинг

post 09-Май-2014 21:21 0[+]

[Цитировать] 

Приключения мистера Пибоди и Шермана / Mr. Peabody & Sherman
Наименование: Приключения мистера Пибоди и Шермана
Оригинальное наименование: Mr. Peabody & Sherman
Год выпуска: 2014
Произведено: США
Категория: Мультфильм, фантастика, комедия, приключения, семейный
Продолжительность: 01:33:08
Перевод: Дублированный [iTunes]
Субтитры: ---
Режиссер постановщик: Роб Минкофф
В главных ролях: Тай Бурелл, Макс Чарльз, Эриель Винтер, Стефен Колбер, Лесли Манн, Эллисон Дженни, Стэнли Туччи, Том МакГрат, Лэйк Белл, Зак Каллисон
Краткое описание: Мистер Пибоди — бизнесмен, изобретатель, ученый, нобелевский лауреат, гурман, двукратный олимпийский чемпион и гений… который кроме всего прочего является собакой. При помощи своего самого неординарного изобретения — машины ВЕЙБЕК — мистер Пибоди и его приемный сын Шерман мгновенно перемещаются в прошлое, где становятся свидетелями самых важных исторических событий и общаются с известными историческими персонажами. Но когда Шерман нарушает правила путешествий во времени, нашим героям приходится вновь отправиться в путь — на сей раз с целью восстановления цепи исторических событий и спасения будущего. Кроме того, мистеру Пибоди предстоит справиться с самой сложной для него задачей — стать настоящим отцом для Шермана.
Качество: WEB-DLRip
Формат: AVI
Видео: 1709 kb/s, 720x384, 25.000 fps
Аудио: AC3, 48.0 KHz, 6 ch, 384 Kbps

Семпл
Общее
Полное имя : D:\!Tapochek.net\!___\Pibody.i.Sherman.2014.D.WEB-DLRip.avi
Формат : AVI
Формат/Информация : Audio Video Interleave
Размер файла : 1,37 Гбайт
Продолжительность : 1 ч. 33 м.
Общий поток : 2100 Кбит/сек
Программа кодирования : VirtualDubMod 1.5.10.3 | www.virtualdub-fr.org || (build 2550/release)
Библиотека кодирования : VirtualDubMod build 2550/release

Видео
Идентификатор : 0
Формат : MPEG-4 Visual
Профиль формата : Advanced Simple@L5
Параметр BVOP формата : 2
Параметр QPel формата : Нет
Параметр GMC формата : Без точки перехода
Параметр матрицы формата : Default (MPEG)
Идентификатор кодека : XVID
Идентификатор кодека/Подсказка : XviD
Продолжительность : 1 ч. 33 м.
Битрейт : 1709 Кбит/сек
Ширина : 720 пикселей
Высота : 384 пикселя
Соотношение сторон : 1,85:1
Частота кадров : 23,976 кадра/сек
Цветовое пространство : YUV
Субдискретизация насыщенности : 4:2:0
Битовая глубина : 8 бит
Тип развёртки : Прогрессивная
Метод сжатия : С потерями
Бит/(Пиксели*Кадры) : 0.258
Размер потока : 1,11 Гбайт (81%)
Библиотека кодирования : XviD 1.2.1 (UTC 2008-12-04)

Аудио
Идентификатор : 1
Формат : AC-3
Формат/Информация : Audio Coding 3
Расширение режима : CM (complete main)
Параметр Endianness формата : Big
Идентификатор кодека : 2000
Продолжительность : 1 ч. 32 м.
Вид битрейта : Постоянный
Битрейт : 384 Кбит/сек
Каналы : 6 каналов
Расположение каналов : Front: L C R, Side: L R, LFE
Частота : 48,0 КГц
Битовая глубина : 16 бит
Метод сжатия : С потерями
Размер потока : 254 Мбайт (18%)
Выравнивание : Разделение по промежуткам
Продолжительность промежутка : 42 мс. (1,01 видеокадр)
Время предзагрузки промежутка : 500 мс.
info [Профиль]  [ЛС] 

L

Пол: Пол:Муж

Стаж: 6 лет 8 месяцев

Сообщений: 10838

Украина
Рейтинг

post 06-Июн-2014 07:07 (спустя 27 дней) [-]0[+]

[Цитировать] 

Обновлено
iTunes

_________________
info [Профиль]  [ЛС] 

post 14-Сен-2014 10:48 (спустя 3 месяца 8 дней) [-]0[+]

Топик был перенесен из форума Новинки 2013-2014 (Rips) в форум Зарубежные полнометражные мультфильмы

L
 
Показать сообщения:    
Ответить на тему

Текущее время: 10-Дек 13:00

Часовой пояс: GMT + 4



Вы не можете начинать темы
Вы не можете отвечать на сообщения
Вы не можете редактировать свои сообщения
Вы не можете удалять свои сообщения
Вы не можете голосовать в опросах
Вы не можете прикреплять файлы к сообщениям
Вы не можете скачивать файлы