Ошибка

Феи: Тайна зимнего леса / Secret of the Wings (Роберт Ганнавей, Пегги Холмс) [2012 г., мультфильм, фэнтези, семейный, BDRip 720p]

Ответить на тему
 
Автор Сообщение

LyaKich

Пол: Пол:Муж

Стаж: 6 лет 3 месяца

Сообщений: 6303

Россия
Рейтинг

post 07-Май-2014 21:27 1[+]

[Цитировать] 

Феи: Тайна зимнего леса / Secret of the Wings
«Два мира. Одна тайна»

Год выхода: 2012
Выпущено: США
Жанр: мультфильм, фэнтези, семейный
Продолжительность: 01:15:03
Перевод: |Дубляж|
Субтитры: Russian,English(SDH),English
Режиссер: Роберт Ганнавей, Пегги Холмс
В ролях: Тимоти Далтон, Люси Хейл, Меган Хилти, Анжелика Хьюстон, Мэтт Лантер, Джесси МакКартни, Мэй Уитман, Люси Лью, Рэйвен, Дебби Райан

Сюжет фильма:

Динь-Динь и ее подруги всегда боялись пересекать границу с Зимним лесом, ведь существует поверье, что там очень опасно. В один прекрасный день Динь-Динь, сгорая от любопытства, подходит вплотную к лесу, и ее крылья неожиданно начинают блестеть и переливаться. Завороженная Динь, желая узнать тайну волшебных крыльев, кутается в теплое пальто и отправляется в глубь таинственного леса, где ее ждет неожиданное открытие...

Качество: BDRip 720p
Формат: MKV
Источник: <u>Secret of the Wings&nbsp;&nbsp;Blu-ray EUR 1080p AVC DD5.1</u>
Видео: 1280x720 at 23.976 fps, x264@L4.1, crf, ~4613 kbps avg
Аудио#1: Russian: 48 kHz, AC3, 3/2 (L,C,R,l,r) + LFE ch, ~640 kbps avg |Дубляж|
Аудио#2: English: 48 kHz, DTS, 3/2 (L,C,R,l,r) + LFE ch, ~1536 kbps avg
Релиз:

Код:

Общее
Уникальный идентификатор                 : 196735607991654427037109158128745531068 (0x9401E65CF3B90923B51D4AFA0C8D46BC)
Полное имя                               : D:\Secret.of.the.Wings.2012.720р.BluRay.Rus.Eng.HDCLUB-xmad.mkv
Формат                                   : Matroska
Версия формата                           : Version 2
Размер файла                             : 3,62 Гбайт
Продолжительность                        : 1 ч. 15 м.
Общий поток                              : 6900 Кбит/сек
Название фильма                          : Secret of the Wings (2012) - Release for HDCLUB
Дата кодирования                         : UTC 2012-12-15 18:05:37
Программа кодирования                    : mkvmerge v5.8.0 ('No Sleep / Pillow') built on Sep  2 2012 15:37:04
Библиотека кодирования                   : libebml v1.2.3 + libmatroska v1.3.0

Видео
Идентификатор                            : 1
Формат                                   : AVC
Формат/Информация                        : Advanced Video Codec
Профиль формата                          : High@L4.1
Параметр CABAC формата                   : Да
Параметр ReFrames формата                : 9 кадров
Идентификатор кодека                     : V_MPEG4/ISO/AVC
Продолжительность                        : 1 ч. 15 м.
Битрейт                                  : 4614 Кбит/сек
Ширина                                   : 1280 пикселей
Высота                                   : 720 пикселей
Соотношение сторон                       : 16:9
Режим частоты кадров                     : Постоянный
Частота кадров                           : 23,976 кадра/сек
Цветовое пространство                    : YUV
Субдискретизация насыщенности            : 4:2:0
Битовая глубина                          : 8 бит
Тип развёртки                            : Прогрессивная
Бит/(Пиксели*Кадры)                      : 0.209
Размер потока                            : 2,42 Гбайт (67%)
Заголовок                                : Release for HDCLUB
Библиотека кодирования                   : x264 core 129 r2230 1cffe9f
Настройки программы                      : cabac=1 / ref=9 / deblock=1:-1:-1 / analyse=0x3:0x133 / me=tesa / subme=11 / psy=1 / psy_rd=0.90:0.00 / mixed_ref=1 / me_range=32 / chroma_me=1 / trellis=2 / 8x8dct=1 / cqm=0 / deadzone=21,11 / fast_pskip=0 / chroma_qp_offset=-2 / threads=12 / lookahead_threads=2 / sliced_threads=0 / nr=0 / decimate=1 / interlaced=0 / bluray_compat=0 / constrained_intra=0 / bframes=10 / b_pyramid=2 / b_adapt=2 / b_bias=0 / direct=3 / weightb=1 / open_gop=0 / weightp=2 / keyint=240 / keyint_min=24 / scenecut=40 / intra_refresh=0 / rc=crf / mbtree=0 / crf=16.0 / qcomp=0.60 / qpmin=0 / qpmax=69 / qpstep=4 / ip_ratio=1.40 / pb_ratio=1.30 / aq=1:0.80
Язык                                     : English
Default                                  : Да
Forced                                   : Нет

Аудио #1
Идентификатор                            : 2
Формат                                   : AC-3
Формат/Информация                        : Audio Coding 3
Расширение режима                        : CM (complete main)
Параметр Endianness формата              : Big
Идентификатор кодека                     : A_AC3
Продолжительность                        : 1 ч. 15 м.
Вид битрейта                             : Постоянный
Битрейт                                  : 640 Кбит/сек
Каналы                                   : 6 каналов
Расположение каналов                     : Front: L C R, Side: L R, LFE
Частота                                  : 48,0 КГц
Битовая глубина                          : 16 бит
Метод сжатия                             : С потерями
Размер потока                            : 344 Мбайт (9%)
Заголовок                                : (AC3 5.1 @ 640 kbps - Дубляж)
Язык                                     : Russian
Default                                  : Да
Forced                                   : Нет

Аудио #2
Идентификатор                            : 3
Формат                                   : DTS
Формат/Информация                        : Digital Theater Systems
Режим                                    : 16
Параметр Endianness формата              : Big
Идентификатор кодека                     : A_DTS
Продолжительность                        : 1 ч. 15 м.
Вид битрейта                             : Постоянный
Битрейт                                  : 1509 Кбит/сек
Каналы                                   : 6 каналов
Расположение каналов                     : Front: L C R, Side: L R, LFE
Частота                                  : 48,0 КГц
Битовая глубина                          : 24 бит
Метод сжатия                             : С потерями
Размер потока                            : 810 Мбайт (22%)
Заголовок                                : (DTS 5.1 @ 1510 kbps - Original)
Язык                                     : English
Default                                  : Нет
Forced                                   : Нет

Текст #1
Идентификатор                            : 4
Формат                                   : UTF-8
Идентификатор кодека                     : S_TEXT/UTF8
Идентификатор кодека/Информация          : UTF-8 Plain Text
Заголовок                                : SRT
Язык                                     : Russian
Default                                  : Нет
Forced                                   : Да

Текст #2
Идентификатор                            : 5
Формат                                   : UTF-8
Идентификатор кодека                     : S_TEXT/UTF8
Идентификатор кодека/Информация          : UTF-8 Plain Text
Заголовок                                : SDH
Язык                                     : English
Default                                  : Нет
Forced                                   : Нет

Текст #3
Идентификатор                            : 6
Формат                                   : UTF-8
Идентификатор кодека                     : S_TEXT/UTF8
Идентификатор кодека/Информация          : UTF-8 Plain Text
Заголовок                                : SRT
Язык                                     : English
Default                                  : Нет
Forced                                   : Нет

Меню
00:00:00.000                             : :Chapter 01
00:05:53.019                             : :Chapter 02
00:09:04.627                             : :Chapter 03
00:14:10.516                             : :Chapter 04
00:20:32.481                             : :Chapter 05
00:28:17.404                             : :Chapter 06
00:34:46.209                             : :Chapter 07
00:40:26.465                             : :Chapter 08
00:48:07.134                             : :Chapter 09
00:53:50.685                             : :Chapter 10
01:00:37.175                             : :Chapter 11
01:07:47.563                             : :Chapter 12
01:15:03.665                             : :Chapter 13
info [Профиль]  [ЛС] 

post 07-Май-2014 21:38 (спустя 10 минут) [-]0[+]

Топик был перенесен из форума Зарубежное кино | HD Rips в форум Мультфильмы (HD Video)

BZzz
 
Показать сообщения:    
Ответить на тему

Текущее время: 03-Дек 00:13

Часовой пояс: GMT + 4



Вы не можете начинать темы
Вы не можете отвечать на сообщения
Вы не можете редактировать свои сообщения
Вы не можете удалять свои сообщения
Вы не можете голосовать в опросах
Вы не можете прикреплять файлы к сообщениям
Вы не можете скачивать файлы