Ошибка

Феи: Потерянное сокровище / Tinker Bell and the Lost Treasure (Клей Холл) [2009 г., мультфильм, фэнтези, BDRip 720p]

Ответить на тему
 
Автор Сообщение

LyaKich

Пол: Пол:Муж

Стаж: 6 лет 5 месяцев

Сообщений: 6303

Россия
Рейтинг

post 07-Май-2014 20:59 1[+]

[Цитировать] 

Феи: Потерянное сокровище / Tinker Bell and the Lost Treasure
«Adventure beyond Pixie Hollow.»

Год выхода: 2009
Выпущено: Франция
Жанр: Мультфильм, фэнтези
Продолжительность: 01:20:11
Перевод: |Дубляж|
Субтитры: Russian, Ukrainian, English
Режиссер: Клей Холл
В ролях: Кристин Ченоуэт, Мэй Уитман, Анджелика Хьюстон, Люси Лью, Памела Адлон, Джесси МакКартни, Рэйвен, Грэй ДеЛисл, Джейн Хоррокс, Джон Ди Маджио

Сюжет фильма:

Продолжение приключений феи мастерицы Динь-Динь и ее друзей. Необходимо омолодить Дерево Фейской Пыльцы. Выбирают фею Динь — лучшего из мастеров, она должна изготовить Скипетр, важнейшая часть которого — Лунный Камень. В ходе работы над Скипетром Лунный Камень был разрушен. Динь-Динь очень хочет исправить ошибку. Она отправляется на север Нетляндии в поисках Волшебного Зеркала, которое может исполнить ее желание

Качество: BDRip 720p
Формат: MKV
Видео: 1280x720 at 23.976 fps, x264@L4.1, 2pass, ~4123 kbps avg
Аудио#1: Russian: 48 kHz, AC3, 3/2 (L,C,R,l,r) + LFE ch, ~384.00 kbps avg |Дубляж|
Аудио#2: English: 48 kHz, DTS, 3/2 (L,C,R,l,r) + LFE ch, ~1536.00 kbps avg
Релиз:

Код:

Общее
Уникальный идентификатор                 : 222413076968174060733175252383464698978 (0xA7533353AE81E930834D1A4163483462)
Полное имя                               : D:\Tinker.Bell.and.the.Lost.Treasure.2009.720p.BluRay.Rus.Eng.HDCLUB.mkv
Формат                                   : Matroska
Версия формата                           : Version 2
Размер файла                             : 3,37 Гбайт
Продолжительность                        : 1 ч. 20 м.
Общий поток                              : 6019 Кбит/сек
Название фильма                          : Tinker Bell and the Lost Treasure (2009) - Release for HDCLUB
Дата кодирования                         : UTC 2009-11-26 18:52:08
Программа кодирования                    : mkvmerge v2.9.7 ('Tenderness') built on Jul  1 2009 18:43:35
Библиотека кодирования                   : libebml v0.7.7 + libmatroska v0.8.1

Видео
Идентификатор                            : 1
Формат                                   : AVC
Формат/Информация                        : Advanced Video Codec
Профиль формата                          : High@L4.1
Параметр CABAC формата                   : Да
Параметр ReFrames формата                : 9 кадров
Идентификатор кодека                     : V_MPEG4/ISO/AVC
Продолжительность                        : 1 ч. 20 м.
Битрейт                                  : 4123 Кбит/сек
Ширина                                   : 1280 пикселей
Высота                                   : 720 пикселей
Соотношение сторон                       : 16:9
Режим частоты кадров                     : Постоянный
Частота кадров                           : 23,976 кадра/сек
Цветовое пространство                    : YUV
Субдискретизация насыщенности            : 4:2:0
Битовая глубина                          : 8 бит
Тип развёртки                            : Прогрессивная
Бит/(Пиксели*Кадры)                      : 0.187
Размер потока                            : 2,25 Гбайт (67%)
Заголовок                                : Release for HDCLUB
Библиотека кодирования                   : x264 core 79 r1336M 2a35a01
Настройки программы                      : cabac=1 / ref=9 / deblock=1:-3:-3 / analyse=0x3:0x113 / me=umh / subme=9 / psy=1 / psy_rd=0.8:0.0 / mixed_ref=1 / me_range=32 / chroma_me=1 / trellis=2 / 8x8dct=1 / cqm=0 / deadzone=21,11 / chroma_qp_offset=-2 / threads=6 / nr=0 / decimate=0 / mbaff=0 / constrained_intra=0 / bframes=5 / b_pyramid=2 / b_adapt=2 / b_bias=0 / direct=3 / wpredb=1 / wpredp=2 / keyint=250 / keyint_min=25 / scenecut=40 / rc=2pass / mbtree=0 / bitrate=4123 / ratetol=1.0 / qcomp=0.60 / qpmin=10 / qpmax=51 / qpstep=4 / cplxblur=20.0 / qblur=0.5 / ip_ratio=1.40 / pb_ratio=1.30 / aq=1:0.70
Язык                                     : English
Default                                  : Да
Forced                                   : Нет

Аудио #1
Идентификатор                            : 2
Формат                                   : AC-3
Формат/Информация                        : Audio Coding 3
Расширение режима                        : CM (complete main)
Параметр Endianness формата              : Big
Идентификатор кодека                     : A_AC3
Продолжительность                        : 1 ч. 20 м.
Вид битрейта                             : Постоянный
Битрейт                                  : 384 Кбит/сек
Каналы                                   : 6 каналов
Расположение каналов                     : Front: L C R, Side: L R, LFE
Частота                                  : 48,0 КГц
Битовая глубина                          : 16 бит
Метод сжатия                             : С потерями
Размер потока                            : 220 Мбайт (6%)
Заголовок                                : AC3 5.1 @ 384 kbps - Дублированный
Язык                                     : Russian
Default                                  : Да
Forced                                   : Нет

Аудио #2
Идентификатор                            : 3
Формат                                   : DTS
Формат/Информация                        : Digital Theater Systems
Режим                                    : 16
Параметр Endianness формата              : Big
Идентификатор кодека                     : A_DTS
Продолжительность                        : 1 ч. 20 м.
Вид битрейта                             : Постоянный
Битрейт                                  : 1509 Кбит/сек
Каналы                                   : 6 каналов
Расположение каналов                     : Front: L C R, Side: L R, LFE
Частота                                  : 48,0 КГц
Битовая глубина                          : 24 бит
Метод сжатия                             : С потерями
Размер потока                            : 866 Мбайт (25%)
Заголовок                                : DTS 5.1 @ 1536 kbps
Язык                                     : English
Default                                  : Нет
Forced                                   : Нет

Текст #1
Идентификатор                            : 4
Формат                                   : UTF-8
Идентификатор кодека                     : S_TEXT/UTF8
Идентификатор кодека/Информация          : UTF-8 Plain Text
Язык                                     : Russian
Default                                  : Нет
Forced                                   : Нет

Текст #2
Идентификатор                            : 5
Формат                                   : UTF-8
Идентификатор кодека                     : S_TEXT/UTF8
Идентификатор кодека/Информация          : UTF-8 Plain Text
Язык                                     : Ukrainian
Default                                  : Нет
Forced                                   : Нет

Текст #3
Идентификатор                            : 6
Формат                                   : UTF-8
Идентификатор кодека                     : S_TEXT/UTF8
Идентификатор кодека/Информация          : UTF-8 Plain Text
Язык                                     : English
Default                                  : Нет
Forced                                   : Нет

Меню
00:00:00.000                             : en:00:00:00.000
00:05:54.563                             : en:00:05:54.563
00:09:35.033                             : en:00:09:35.033
00:13:00.571                             : en:00:13:00.571
00:18:21.809                             : en:00:18:21.809
00:26:07.900                             : en:00:26:07.900
00:33:54.741                             : en:00:33:54.741
00:41:44.210                             : en:00:41:44.210
00:49:28.340                             : en:00:49:28.340
00:56:50.240                             : en:00:56:50.240
01:03:53.955                             : en:01:03:53.955
01:12:16.666                             : en:01:12:16.666
info [Профиль]  [ЛС] 

post 07-Май-2014 21:38 (спустя 39 минут) [-]0[+]

Топик был перенесен из форума Зарубежное кино | HD Rips в форум Мультфильмы (HD Video)

BZzz
 
Показать сообщения:    
Ответить на тему

Текущее время: 21-Фев 13:43

Часовой пояс: GMT + 4



Вы не можете начинать темы
Вы не можете отвечать на сообщения
Вы не можете редактировать свои сообщения
Вы не можете удалять свои сообщения
Вы не можете голосовать в опросах
Вы не можете прикреплять файлы к сообщениям
Вы не можете скачивать файлы