Ошибка

Феи / Tinker Bell (Брэдли Рэймонд) [2008 г., фэнтези, семейный, мультфильм, BDRip 720p]

Ответить на тему
 
Автор Сообщение

LyaKich

Пол: Пол:Муж

Стаж: 6 лет 3 месяца

Сообщений: 6303

Россия
Рейтинг

post 07-Май-2014 20:34 1[+]

[Цитировать] 

Феи / Tinker Bell
«Добро пожаловать в долину фей»

Год выхода: 2008
Выпущено: США | DisneyToon Studios
Жанр: Фэнтези, семейный, мультфильм
Продолжительность: 01:42:14
Перевод: |Дубляж|
Субтитры: Russian, Ukrainian, Dutch, English
Режиссер: Брэдли Рэймонд
В ролях: Мэй Уитман, Кристин Ченоуэт, Рэйвен, Люси Лью, Америка Феррера, Джейн Хоррокс, Джесси МакКартни, Джефф Беннетт, Роб Полсен, Памела Сигал

Сюжет фильма:

Добро пожаловать в волшебный мир, населенный очаровательными обитательницами Долины Фей. Это чудесное место, наполненное мифами, магией и волшебством. Долина Фей — это целое королевство, каждый житель которого обладает своим, необыкновенным талантам, а все вместе феи выполняют очень важную работу — они заботятся о природе и помогают временам года сменять друг друга: помогают листьям менять цвет, солнечным лучам — растапливать снег, зверям, оставшимся на зимнюю спячку — выбираться из своих нор и берлог. Фея Динь-Динь считает, что ее талант по починке кастрюль и чайников, не так важен, как умения других фей. Но когда Динь-Динь решает заняться чем-то другим, из этого не получается ничего, кроме всеобщего замешательства! С помощью своих подруг она понимает, что главное в жизни — быть честной с самой собой, и тогда-то и родится подлинная магия.


Качество: BDRip 720p
Формат MKV
Видео: 1280x720 at 23.976 fps, x.264@L4.1, ~2550 Kbps avg
Аудио#1: Russian: 48 kHz, AC3, 3/2 (L,C,R,l,r) + LFE ch,~384.00 kbps avg |Дубляж|
Аудио#2: Ukrainian: 48 kHz, AC3, 3/2 (L,C,R,l,r) + LFE ch,~384.00 kbps avg |Дубляж|
Аудио#3: English: 48 kHz, DTS, 3/2 (L,C,R,l,r) + LFE ch,~1536.00 kbps avg
Релиз:

Код:

Общее
Уникальный идентификатор                 : 218893013928527097156133634368440101915 (0xA4AD42D1D3D17688A78DC5920F37EC1B)
Полное имя                               : D:\Tinker Bell 2008 720p Blu-Ray DTS x264 Rus Ukr Eng.mkv
Формат                                   : Matroska
Версия формата                           : Version 1
Размер файла                             : 3,02 Гбайт
Продолжительность                        : 1 ч. 18 м.
Общий поток                              : 5535 Кбит/сек
Название фильма                          : HDClub
Дата кодирования                         : UTC 2008-11-27 20:38:01
Программа кодирования                    : mkvmerge v2.0.2 ('You're My Flame') built on Feb 22 2007 00:05:35
Библиотека кодирования                   : libebml v0.7.7 + libmatroska v0.8.1

Видео
Идентификатор                            : 1
Формат                                   : AVC
Формат/Информация                        : Advanced Video Codec
Профиль формата                          : High@L4.1
Параметр CABAC формата                   : Да
Параметр ReFrames формата                : 4 кадра
Идентификатор кодека                     : V_MPEG4/ISO/AVC
Продолжительность                        : 1 ч. 18 м.
Битрейт                                  : 3147 Кбит/сек
Ширина                                   : 1280 пикселей
Высота                                   : 720 пикселей
Соотношение сторон                       : 16:9
Режим частоты кадров                     : Постоянный
Частота кадров                           : 23,976 кадра/сек
Цветовое пространство                    : YUV
Субдискретизация насыщенности            : 4:2:0
Битовая глубина                          : 8 бит
Тип развёртки                            : Прогрессивная
Бит/(Пиксели*Кадры)                      : 0.142
Размер потока                            : 1,72 Гбайт (57%)
Заголовок                                : ViDEO
Библиотека кодирования                   : x264 core 65 r998M 6768543
Настройки программы                      : cabac=1 / ref=4 / deblock=1:1:2 / analyse=0x3:0x113 / me=umh / subme=7 / psy_rd=1.0:0.0 / mixed_ref=1 / me_range=16 / chroma_me=1 / trellis=2 / 8x8dct=1 / cqm=0 / deadzone=21,11 / chroma_qp_offset=-2 / threads=3 / nr=0 / decimate=0 / mbaff=0 / bframes=3 / b_pyramid=1 / b_adapt=1 / b_bias=0 / direct=3 / wpredb=1 / keyint=250 / keyint_min=25 / scenecut=40(pre) / rc=crf / crf=20.0 / qcomp=0.60 / qpmin=10 / qpmax=51 / qpstep=4 / vbv_maxrate=38000 / vbv_bufsize=30000 / ip_ratio=1.40 / pb_ratio=1.30 / aq=1:1.00
Default                                  : Да
Forced                                   : Нет

Аудио #1
Идентификатор                            : 2
Формат                                   : AC-3
Формат/Информация                        : Audio Coding 3
Расширение режима                        : CM (complete main)
Параметр Endianness формата              : Big
Идентификатор кодека                     : A_AC3
Продолжительность                        : 1 ч. 18 м.
Вид битрейта                             : Постоянный
Битрейт                                  : 384 Кбит/сек
Каналы                                   : 5 каналов
Расположение каналов                     : Front: L C R, Side: L R
Частота                                  : 48,0 КГц
Битовая глубина                          : 16 бит
Метод сжатия                             : С потерями
Размер потока                            : 214 Мбайт (7%)
Заголовок                                : AC3 5.1 384 Kbps
Язык                                     : Russian
Default                                  : Да
Forced                                   : Нет

Аудио #2
Идентификатор                            : 3
Формат                                   : AC-3
Формат/Информация                        : Audio Coding 3
Расширение режима                        : CM (complete main)
Параметр Endianness формата              : Big
Идентификатор кодека                     : A_AC3
Продолжительность                        : 1 ч. 18 м.
Вид битрейта                             : Постоянный
Битрейт                                  : 384 Кбит/сек
Каналы                                   : 5 каналов
Расположение каналов                     : Front: L C R, Side: L R
Частота                                  : 48,0 КГц
Битовая глубина                          : 16 бит
Метод сжатия                             : С потерями
Размер потока                            : 214 Мбайт (7%)
Заголовок                                : AC3 5.1 384 Kbps
Язык                                     : Ukrainian
Default                                  : Нет
Forced                                   : Нет

Аудио #3
Идентификатор                            : 4
Формат                                   : DTS
Формат/Информация                        : Digital Theater Systems
Режим                                    : 16
Параметр Endianness формата              : Big
Идентификатор кодека                     : A_DTS
Продолжительность                        : 1 ч. 18 м.
Вид битрейта                             : Постоянный
Битрейт                                  : 1510 Кбит/сек
Каналы                                   : 6 каналов
Расположение каналов                     : Front: L C R, Side: L R, LFE
Частота                                  : 48,0 КГц
Битовая глубина                          : 24 бит
Метод сжатия                             : С потерями
Размер потока                            : 843 Мбайт (27%)
Заголовок                                : DTS 5.1 1536 Kbps
Язык                                     : English
Default                                  : Нет
Forced                                   : Нет

Текст #1
Идентификатор                            : 5
Формат                                   : UTF-8
Идентификатор кодека                     : S_TEXT/UTF8
Идентификатор кодека/Информация          : UTF-8 Plain Text
Язык                                     : Russian
Default                                  : Нет
Forced                                   : Нет

Текст #2
Идентификатор                            : 6
Формат                                   : UTF-8
Идентификатор кодека                     : S_TEXT/UTF8
Идентификатор кодека/Информация          : UTF-8 Plain Text
Язык                                     : Ukrainian
Default                                  : Нет
Forced                                   : Нет

Текст #3
Идентификатор                            : 7
Формат                                   : UTF-8
Идентификатор кодека                     : S_TEXT/UTF8
Идентификатор кодека/Информация          : UTF-8 Plain Text
Язык                                     : English
Default                                  : Да
Forced                                   : Нет

Текст #4
Идентификатор                            : 8
Формат                                   : UTF-8
Идентификатор кодека                     : S_TEXT/UTF8
Идентификатор кодека/Информация          : UTF-8 Plain Text
Язык                                     : Dutch
Default                                  : Нет
Forced                                   : Нет

Текст #5
Идентификатор                            : 9
Формат                                   : UTF-8
Идентификатор кодека                     : S_TEXT/UTF8
Идентификатор кодека/Информация          : UTF-8 Plain Text
Язык                                     : English
Default                                  : Нет
Forced                                   : Нет
info [Профиль]  [ЛС] 

post 07-Май-2014 21:38 (спустя 1 час 4 минуты) [-]0[+]

Топик был перенесен из форума Зарубежное кино | HD Rips в форум Мультфильмы (HD Video)

BZzz
 
Показать сообщения:    
Ответить на тему

Текущее время: 03-Дек 21:47

Часовой пояс: GMT + 4



Вы не можете начинать темы
Вы не можете отвечать на сообщения
Вы не можете редактировать свои сообщения
Вы не можете удалять свои сообщения
Вы не можете голосовать в опросах
Вы не можете прикреплять файлы к сообщениям
Вы не можете скачивать файлы