Ошибка

Generation Iron/Железное поколение (Влад Юдин/Vlad Yudin) [2013., Документальный, Спорт, WEB-DL, 720p]

Ответить на тему
 
Автор Сообщение

youfagots

Пол: Пол:Муж

Стаж: 2 года 7 месяцев

Сообщений: 1

США
Рейтинг

post 04-Май-2014 15:10 2[+]

[Цитировать] 

Generation Iron/Железное поколение



Дата/Год выпуска: 2013
Страна: США
Жанр: Документальный, Спорт
Продолжительность: 01:47:08
Перевод: Любительский многогоглосый (Generation of Bodybuilding)
Режиссер: Влад Юдин
В ролях: Микки Рурк, Фил Хит, Кай Грин, Бренч Уоррен, Дэннис Вульф, Виктор Мартинес, Арнольд Шварценеггер, Майкл Джей Уайт, Лу Ферриньо, Баста Раймс, Джэй Катлер, Майк Кац
Описание: Документальный фильм, который рассказывает о том, как тренируются культуристы, готовясь к конкурсу «Мистер Олимпия».
Качество: WEB-DL, 720p.
Формат видео: AVI
Видео: H.264, 720х400, 23.976fps, 2 920 Kbps
Аудио 1: RUS MP3, 48kHz, stereo, 256 Kbps
Аудио 2: ENG AC3, 48kHz, 6ch, 384 Kbps
Сємпл: http://yadi.sk/d/9_nrbE3HP3SFw
General
Format : AVI
Format/Info : Audio Video Interleave
Format profile : OpenDML
File size : 2.18 GiB
Duration : 1h 47mn
Overall bit rate : 2 920 Kbps
Video #0
ID : 0
Format : MPEG-4 Visual
Format profile : Advanced Simple@L5
Format settings, BVOP : 1
Format settings, QPel : No
Format settings, GMC : No warppoints
Format settings, Matrix : Default (MPEG)
Codec ID : XVID
Codec ID/Hint : XviD
Duration : 1h 47mn
Bit rate : 2 000 Kbps
Width : 720 pixels
Height : 400 pixels
Display aspect ratio : 16:9
Frame rate : 23.976 fps
Color space : YUV
Chroma subsampling : 4:2:0
Bit depth : 8 bits
Scan type : Progressive
Compression mode : Lossy
Bits/(Pixel*Frame) : 0.290
Stream size : 1.50 GiB (68%)
Writing library : XviD 1.2.1 (UTC 2008-12-04)
Audio #1
ID :1
Format : MPEG Audio
Format version : Version 1
Format profile : Layer 3
Codec ID : 55
Codec ID/Hint : MP3
Duration : 1h 47mn
Bit rate mode : Constant
Bit rate : 256 Kbps
Channel(s) : 2 channels
Sampling rate : 48.0 KHz
Compression mode : Lossy
Stream size : 196 MiB (9%)
Alignment : Aligned on interleaves
Interleave, duration : 42 ms (1.00 video frame)
Interleave, preload duration : 504 ms
Audio #2
ID : 2
Format : AC-2
Format/Info : Audio Coding 2
Mode extension : CM (complete main)
Format settings, Endianness : Big
Codec ID : 2000
Duration : 1h 47mn
Bit rate mode : Constant
Bit rate : 384 Kbps
Channel(s) : 6 channels
Channel positions : Front: L C R, Side: L R, LFE
Sampling rate : 48.0 KHz
Bit depth : 16 bits
Compression mode : Lossy
Stream size : 294 MiB (13%)
Alignment : Split accross interleaves
Interleave, duration : 42 ms (1.00 video frame)
Interleave, preload duration : 500 ms
info [Профиль]  [ЛС] 

post 10-Май-2014 22:26 (спустя 6 дней) [-]0[+]

Топик был перенесен из форума Анонсы в форум Документальные фильмы и телепередачи

koss555
 

UAZ88

Пол: Пол:Муж

Стаж: 6 лет 10 месяцев

Сообщений: 11

Германия
Рейтинг

post 11-Май-2014 00:54 (спустя 6 дней) [-]1[+]

[Цитировать] 

Фильм интересный, но мне кажется затянутый. Первая часть всё же больше по душе. Пакульски конечно удивил своей методой. Кай задолбал делать из себя бедного и несчастного человека, сколько можно. Фил красава, номер один однозначно, надеюсь в этом году судейство будет более чёткое и Вульф будет вторым.

_________________
info [Профиль]  [ЛС] 

Alphandore

Стаж: 7 лет 1 месяц

Сообщений: 40

Россия
Рейтинг

post 11-Май-2014 10:53 (спустя 9 часов) [-]1[+]

[Цитировать] 

В Кае столько пафоса увидел, просто ппц! Мнит из себя бога, а на деле побоялся в Россию приехать на семинар=/ Фил однозначно красава! Посмотрим как карта ляжет в этот раз на Олимпии.
Согласен ,что 1 часть была поинтереснее.
info [Профиль]  [ЛС] 

Dark_Mesiah

Пол: Пол:Муж

Стаж: 3 года 3 месяца

Сообщений: 315

Предупреждений: 1

Россия
Рейтинг

post 11-Май-2014 14:45 (спустя 3 часа) [-]0[+]

[Цитировать] 

Челенжер просто бомба)

_________________
CPU: AMD FX-6300 4.8 GHz
MB: GIGABYTE GA-970A-DS3P
RAM: AMD Radeon R9 Gamer Series 16 Gb
Video: GigaByte AMD Radeon R9 280X 3 Gb
SSD: AMD Radeon R7 Series 120 Gb
HDD: Seagate Constellation 1 Tb
Case: Deepcool Tesseract SW
info [Профиль]  [ЛС] 
Показать сообщения:    
Ответить на тему

Текущее время: 06-Дек 19:59

Часовой пояс: GMT + 4



Вы не можете начинать темы
Вы не можете отвечать на сообщения
Вы не можете редактировать свои сообщения
Вы не можете удалять свои сообщения
Вы не можете голосовать в опросах
Вы не можете прикреплять файлы к сообщениям
Вы не можете скачивать файлы