Ошибка

Реальная белка / The Nut Job (Питер Лепениотис) [2013, мультфильм, комедия, приключения, семейный, HDRip]

Ответить на тему
 
Автор Сообщение

BZzz

Пол: Пол:Муж

Стаж: 5 лет 1 месяц

Сообщений: 3647

Россия
Рейтинг

post 24-Апр-2014 19:00 1[+]

[Цитировать] 

Реальная белка / The Nut Job
«Береги свои орешки!»




Год выпуска: 2013
Страна: Канада , Корея Южная , США
Жанр: мультфильм, комедия, приключения, семейный
Продолжительность: 01:25:54
Перевод: Профессиональный (дублированный)[лицензия]

Режиссер: Питер Лепениотис

В ролях: Уилл Арнетт (Will Arnett), Брендан Фрейзер (Brendan Fraser), Лиам Нисон (Liam Neeson), Кэтрин Хайгл (Katherine Heigl), Стивен Лэнг (Stephen Lang), Майя Рудольф (Maya Rudolph), Джефф Данэм (Jeff Dunham), Гэбриел Иглесиас (Gabriel Iglesias)

Описание: Пытаясь выжить в городе, неразлучные друзья — белка Злюк и крысёнок Бадди натыкаются на магазин, до краёв набитый их любимым лакомством — орехами. Чувствуя, что «мечты сбываются», приятели планируют величайшее ограбление в истории грызунов. Но тут совсем некстати нарисовались бедные родственники из парка — прямо 13 друзей арахиса! Однако им всем невдомёк, что магазин орехов — лишь прикрытие для банды грабителей, которые намерены вырыть туннель под банк и подменить мешки с деньгами на мешки с теми самыми орехами.

Бюджет: $42 000 000
Сборы в США: $63 200 635
Сборы в мире: + $5 307 978 = $68 508 613
Рейтинг MPAA:



Качество: HDRip
Формат: AVI
Видео кодек: XviD
Аудио кодек: AC3
Видео: 720x384 (1.875:1), 23.976 fps, XviD, 1 821 Kbps
Аудио #1: AC3, 448 Kbps, 48.0 KHz, 6 ch
Format : AVI
Format/Info : Audio Video Interleave
File size : 1.37 GiB
Duration : 1h 25mn
Overall bit rate : 2 278 Kbps
Writing application : VirtualDubMod 1.5.10.2 (build 2540/release)
Writing library : VirtualDubMod build 2540/release

Video
ID : 0
Format : MPEG-4 Visual
Format profile : Advanced Simple@L5
Format settings, BVOP : Yes
Format settings, QPel : No
Format settings, GMC : No warppoints
Format settings, Matrix : Custom
Codec ID : XVID
Codec ID/Hint : XviD
Duration : 1h 25mn
Bit rate : 1 821 Kbps
Width : 720 pixels
Height : 384 pixels
Display aspect ratio : 1.85:1
Frame rate : 23.976 fps
Color space : YUV
Chroma subsampling : 4:2:0
Bit depth : 8 bits
Scan type : Progressive
Compression mode : Lossy
Bits/(Pixel*Frame) : 0.275
Stream size : 1.09 GiB (80%)
Writing library : XviD 1.2.1 (UTC 2008-12-04)

Audio
ID : 1
Format : AC-3
Format/Info : Audio Coding 3
Mode extension : CM (complete main)
Format settings, Endianness : Big
Codec ID : 2000
Duration : 1h 25mn
Bit rate mode : Constant
Bit rate : 448 Kbps
Channel(s) : 6 channels
Channel positions : Front: L C R, Side: L R, LFE
Sampling rate : 48.0 KHz
Bit depth : 16 bits
Compression mode : Lossy
Stream size : 275 MiB (20%)
Alignment : Split accross interleaves
Interleave, duration : 42 ms (1.00 video frame)
Interleave, preload duration : 500 ms
info [Профиль]  [ЛС] 

BZzz

Пол: Пол:Муж

Стаж: 5 лет 1 месяц

Сообщений: 3647

Россия
Рейтинг

post 22-Май-2014 20:42 (спустя 28 дней) [-]0[+]

[Цитировать] 

 !  BZzz:
...лицензия
info [Профиль]  [ЛС] 

post 25-Июн-2014 10:36 (спустя 1 месяц 2 дня) [-]0[+]

Топик был перенесен из форума Rips в форум Зарубежное кино | Rips

L
 

post 25-Июн-2014 10:42 (спустя 1 месяц 2 дня) [-]0[+]

Топик был перенесен из форума Зарубежное кино | Rips в форум Зарубежные полнометражные мультфильмы

L
 
Показать сообщения:    
Ответить на тему

Текущее время: 06-Дек 16:08

Часовой пояс: GMT + 4



Вы не можете начинать темы
Вы не можете отвечать на сообщения
Вы не можете редактировать свои сообщения
Вы не можете удалять свои сообщения
Вы не можете голосовать в опросах
Вы не можете прикреплять файлы к сообщениям
Вы не можете скачивать файлы