Ошибка

Необъятные небеса ОВА-1 | IS: Infinite Stratos Encore - Koi ni Kogareru Rokujuusou [OVA][1 из 1][2011][приключения][BDRip][720p][Любительский(JAP+SUB)]

Ответить на тему
 
Автор Сообщение

precentor frost

Пол: Пол:Муж

Стаж: 7 лет 8 месяцев

Сообщений: 669

Рейтинг

post 22-Апр-2014 19:33 1[+]

[Цитировать] 



Необъятные небеса ОВА-1 || IS: Infinite Stratos Encore - Koi ni Kogareru Rokujuusou || IS<インフィニット・ストラトス>アンコール 『恋に焦がれる六重奏』


Страна:
Год выпуска: 2011 [07.12.2011]
Жанр: приключения
Продолжительность: OVA1 1 эп. ~27 мин.

Перевод: озвучка || субтитры

Режиссёр: Кикути Ясухито
Автор оригинала: Юмидзуру Идзуру
Студия:

Итика отправился домой на каникулы. Но в один прекрасный день отдых прерывается, когда девушки одна за одной начинают появляться на пороге его дома.


Информационные ссылки: AniDB || World Art || MAL

Качество: BDRip
Энкод: =^_^=
Тип видео: без хардсаба
Формат: mkv

Видео: x264 (Hi10p), 1280x720 (16:9), ~1600 Kbps, 23.976 fps
Аудио JAP: Vorbis, 48kHz, ~320 Kbps, 2ch

Аудио RUS #1: AAC, 48kHz, ~192 Kbps, 2ch || Animedia (ext)
двухголосая (жен./муж.) от Eladiel & Lupin
Аудио RUS #2: Vorbis, 48kHz, ~320 Kbps, 2ch || Opendub & SeM (ext)
двухголосая (муж./жен.) от Flame & KroshkaRu
Аудио RUS #3: AC3, 48kHz, ~320 Kbps, 2ch || (ext)
многоголосый от Ray & Faraway & Trina D & Nika Lenina & Emeri

Субтитры RUS #1: ASS, полные/вспомогательные || Obelikx & Hollow (ext)
перевод/оформление: Obelikx, лирика/редартура: Hollow
Субтитры RUS #2: ASS, полные || Fratelli & Dreamers Team (ext)
перевод: Jenia aka Zub, лирика: AlenFuns, редактура: Yuliii, оформление: Inhesion


Код:

Complete name                            : ..\[=^_^=] IS Encore - Koi ni Kogareru Rokujuuso [BD720 x264 Vorbis].mkv
Format                                   : Matroska
Format version                           : Version 4 / Version 2
File size                                : 380 MiB
Duration                                 : 26mn 51s
Overall bit rate mode                    : Variable
Overall bit rate                         : 1 980 Kbps
Encoded date                             : UTC 2014-04-05 18:50:49
Writing application                      : mkvmerge v6.5.0 ('Isn't she lovely') built on Oct 20 2013 12:50:05
Writing library                          : libebml v1.3.0 + libmatroska v1.4.1

Video
ID                                       : 1
Format                                   : AVC
Format/Info                              : Advanced Video Codec
Format profile                           : High 10@L5.0
Format settings, CABAC                   : Yes
Format settings, ReFrames                : 8 frames
Codec ID                                 : V_MPEG4/ISO/AVC
Duration                                 : 26mn 51s
Bit rate                                 : 1 621 Kbps
Width                                    : 1 280 pixels
Height                                   : 720 pixels
Display aspect ratio                     : 16:9
Frame rate mode                          : Constant
Frame rate                               : 23.976 fps
Color space                              : YUV
Chroma subsampling                       : 4:2:0
Bit depth                                : 10 bits
Scan type                                : Progressive
Bits/(Pixel*Frame)                       : 0.073
Stream size                              : 311 MiB (82%)
Title                                    : IS: Infinite Stratos Encore - Koi ni Kogareru Rokujuusou
Writing library                          : x264 core 142 r2409 d6b4e63
Encoding settings                        : cabac=1 / ref=8 / deblock=1:-3:-3 / analyse=0x3:0x113 / me=umh / subme=9 / psy=1 / psy_rd=0.90:0.00 / mixed_ref=1 / me_range=32 / chroma_me=1 / trellis=2 / 8x8dct=1 / cqm=0 / deadzone=21,11 / fast_pskip=0 / chroma_qp_offset=-2 / threads=9 / lookahead_threads=2 / sliced_threads=0 / nr=0 / decimate=0 / interlaced=0 / bluray_compat=0 / constrained_intra=0 / bframes=12 / b_pyramid=2 / b_adapt=2 / b_bias=0 / direct=1 / weightb=1 / open_gop=0 / weightp=2 / keyint=240 / keyint_min=24 / scenecut=40 / intra_refresh=0 / rc=crf / mbtree=0 / crf=16.0 / qcomp=0.72 / qpmin=0 / qpmax=81 / qpstep=4 / ip_ratio=1.40 / pb_ratio=1.30 / aq=1:0.85
Default                                  : Yes
Forced                                   : No
Color primaries                          : BT.709
Transfer characteristics                 : BT.709
Matrix coefficients                      : BT.709

Audio
ID                                       : 2
Format                                   : Vorbis
Format settings, Floor                   : 1
Codec ID                                 : A_VORBIS
Duration                                 : 26mn 51s
Bit rate mode                            : Variable
Bit rate                                 : 320 Kbps
Channel(s)                               : 2 channels
Sampling rate                            : 48.0 KHz
Compression mode                         : Lossy
Stream size                              : 61.5 MiB (16%)
Writing library                          : libVorbis (Schaufenugget) (20101101 (Schaufenugget))
Language                                 : Japanese
Default                                  : Yes
Forced                                   : No
info [Профиль]  [ЛС] 
Показать сообщения:    
Ответить на тему

Текущее время: 04-Дек 18:24

Часовой пояс: GMT + 4



Вы не можете начинать темы
Вы не можете отвечать на сообщения
Вы не можете редактировать свои сообщения
Вы не можете удалять свои сообщения
Вы не можете голосовать в опросах
Вы не можете прикреплять файлы к сообщениям
Вы не можете скачивать файлы