Ошибка

Шоу Уральских пельменей: Смешняги. Грачи пролетели! Часть 1 & 2 [2014 г., юмористическое шоу, WEB-DLRip-AVC]

Ответить на тему
 
Автор Сообщение

Alex Ander

Пол: Пол:Муж

Стаж: 7 лет 5 месяцев

Сообщений: 2379

СССР
Рейтинг

post 19-Апр-2014 14:06 0[+]

[Цитировать] 

Шоу Уральских пельменей: Смешняги. Грачи пролетели! Часть 1 & 2

Год выпуска: 2014
Страна: Россия
Жанр: юмористическое шоу
Продолжительность: ~00:49 х 2
Дата эфира: 14.03.2014

В ролях:
    Дмитрий Брекоткин, Сергей Ершов, Сергей Исаев, Сергей Калугин, Вячеслав Мясников, Сергей Нетиевский, Александр Попов, Андрей Рожков, Дмитрий Соколов, Максим Ярица, Юля Михалкова


Описание:
    "Грачи пролетели" - комедийное телевизионное шоу "Уральских пельменей", которое расскажет о последствиях зимних холодов и настоящих весенних ожиданиях. Новое шоу Уральских пельменей очень смешное, и в нём много декораций и костюмов, а поэтому смотреть такое шоу очень интересно.


Качество: WEB-DLRip
Формат: MKV
Видео кодек: H.264
Аудио кодек: AC3
Видео: 1280x720; 2660 kb/s; 25,000 fps
Аудио: 2 ch; 128 kb/s
Формат : Matroska
Версия формата : Version 2
Размер файла : 1002 Мбайт
Продолжительность : 49 м.
Общий поток : 2845 Кбит/сек
Программа кодирования : Lavf54.63.104
Библиотека кодирования : Lavf54.63.104

Видео
Идентификатор : 1
Формат : AVC
Формат/Информация : Advanced Video Codec
Профиль формата : High@L3.1
Параметр CABAC формата : Да
Параметр ReFrames формата : 1 кадр
Параметр GOP формата : M=1, N=60
Идентификатор кодека : V_MPEG4/ISO/AVC
Продолжительность : 49 м.
Битрейт : 2660 Кбит/сек
Ширина : 1280 пикселей
Высота : 720 пикселей
Соотношение сторон : 16:9
Режим частоты кадров : Постоянный
Частота кадров : 25,000 кадров/сек
Цветовое пространство : YUV
Субдискретизация насыщенности : 4:2:0
Битовая глубина : 8 бит
Тип развёртки : Прогрессивная
Бит/(Пиксели*Кадры) : 0.115
Размер потока : 937 Мбайт (94%)
Default : Да
Forced : Нет

Аудио
Идентификатор : 2
Формат : AC-3
Формат/Информация : Audio Coding 3
Расширение режима : CM (complete main)
Параметр Endianness формата : Big
Идентификатор кодека : A_AC3
Продолжительность : 49 м.
Вид битрейта : Постоянный
Битрейт : 128 Кбит/сек
Каналы : 2 канала
Расположение каналов : Front: L R
Частота : 44,1 КГц
Битовая глубина : 16 бит
Метод сжатия : С потерями
Размер потока : 45,1 Мбайт (4%)
Язык : unknown
Default : Да
Forced : Нет
info [Профиль]  [ЛС] 
Показать сообщения:    
Ответить на тему

Текущее время: 11-Дек 00:35

Часовой пояс: GMT + 4



Вы не можете начинать темы
Вы не можете отвечать на сообщения
Вы не можете редактировать свои сообщения
Вы не можете удалять свои сообщения
Вы не можете голосовать в опросах
Вы не можете прикреплять файлы к сообщениям
Вы не можете скачивать файлы