Ошибка

Шоу Уральских пельменей: Смешняги. Пель и Мень спешат на помощь!. Часть 1 & 2 [2014 г., юмористическое шоу, SATRip]

Ответить на тему
 
Автор Сообщение

Alex Ander

Пол: Пол:Муж

Стаж: 7 лет 5 месяцев

Сообщений: 2379

СССР
Рейтинг

post 19-Апр-2014 13:52 0[+]

[Цитировать] 

Шоу Уральских пельменей: Смешняги. Пель и Мень спешат на помощь!. Часть 1 & 2

Год выпуска: 2014
Страна: Россия
Жанр: юмористическое шоу
Продолжительность: ~48 мин х 2
Дата эфира: 18.04.2014

В ролях:
    Дмитрий Брекоткин, Сергей Ершов, Сергей Исаев, Сергей Калугин, Сергей Минеев, Вячеслав Мясников, Сергей Нетиевский, Александр Попов, Андрей Рожков, Дмитрий Соколов, Максим Ярица, Юлия Матюхина-Михалкова


Описание:
    «Шоу Уральские Пельмени» представляют новую программу «ПЕЛЬ и МЕНЬ СМЕШАТ НА ПОМОЩЬ» - все что вы недоувидели в остальных программах – неожиданные постановки, ляпы, истории с открытым финалом и прочие творческие эксперименты, покорившие даже самих экспериментаторов! Ну а все, что мы недописали - мы нарисовали!


Качество: SATRip
Формат: AVI
Видео кодек: XviD
Аудио кодек: MP3
Видео: 1505 Kb/s, 720x400, 25 fps
Аудио: 48 KHz, 2 ch, 128 Kbps
Video
ID : 0
Format : MPEG-4 Visual
Format profile : Advanced Simple@L5
Format settings, BVOP : 2
Format settings, QPel : No
Format settings, GMC : No warppoints
Format settings, Matrix : Default (H.263)
Codec ID : XVID
Codec ID/Hint : XviD
Duration : 44mn 42s
Bit rate : 1 497 Kbps
Width : 720 pixels
Height : 400 pixels
Display aspect ratio : 16:9
Frame rate : 25.000 fps
Color space : YUV
Chroma subsampling : 4:2:0
Bit depth : 8 bits
Scan type : Progressive
Compression mode : Lossy
Bits/(Pixel*Frame) : 0.208
Stream size : 479 MiB (92%)
Writing library : XviD 1.2.1 (UTC 2008-12-04)

Audio
ID : 1
Format : MPEG Audio
Format version : Version 1
Format profile : Layer 3
Mode : Joint stereo
Mode extension : MS Stereo
Codec ID : 55
Codec ID/Hint : MP3
Duration : 44mn 42s
Bit rate mode : Constant
Bit rate : 128 Kbps
Channel count : 2 channels
Sampling rate : 48.0 KHz
Compression mode : Lossy
Stream size : 40.9 MiB (8%)
Alignment : Aligned on interleaves
Interleave, duration : 40 ms (1.00 video frame)
Interleave, preload duration : 504 ms
Writing library : LAME3.99r
Encoding settings : -m j -V 4 -q 2 -lowpass 17 -b 128
info [Профиль]  [ЛС] 
Показать сообщения:    
Ответить на тему

Текущее время: 03-Дек 13:43

Часовой пояс: GMT + 4



Вы не можете начинать темы
Вы не можете отвечать на сообщения
Вы не можете редактировать свои сообщения
Вы не можете удалять свои сообщения
Вы не можете голосовать в опросах
Вы не можете прикреплять файлы к сообщениям
Вы не можете скачивать файлы