Ошибка

До окончания фрилича осталось:


BBC: Генетический код / The Gene Code (Серии: 1-2 из 2) (Адам Резерфорд / Adam Rutherford) [2011 г. научно-популярный, SATRip]

Ответить на тему
 
Автор Сообщение

markfiter

Пол: Пол:Муж

Стаж: 4 года 11 месяцев

Сообщений: 2730

Германия
Рейтинг

post 13-Апр-2014 19:33 1[+]

[Цитировать] 

BBC: Генетический код / The Gene Code

Год выпуска: 2011
Страна: Великобритания
Жанр: научно-популярный
Продолжительность: 2 x ~00:48:50
Перевод: Профессиональный (многоголосый, закадровый)

Режиссер: Адам Резерфорд / Adam Rutherford

Описание: Наша планета полна формами жизни. В каждом живом существе находится самая потрясающая молекула в мире - ДНК. В ней находится код нашей жизни и жизни каждого существа на земле. Она просто чудесна. За десятилетие в понимании генокода произошла революция. Генетики завершили расшифровку человеческого генома. Зафиксировано 3 млрд элементов, из которых состоит человеческая ДНК. Можно сказать, что спустя 13 лет, потратив миллbарды долларов, удалось наконец-то прочитать книгу жизни. Но как функционирует книга жизни? Как длинный список нашей ДНК делает нас такими особенными? Как он влияет на нашу внешность, на наш ум, на продолжительность жизни и на судьбу? Как геном формирует нас? На эти и другие вопросы вы найдете ответ, посмотрев этот фильм.

Качество: SATRip
Формат: AVI
Видео кодек: XviD
Аудио кодек: AC3
Видео: 720x400 (1.80:1), 25 fps, XviD build 50 ~1800 kbps avg, 0.25 bit/pixel
Аудио: 48 kHz, AC3 Dolby Digital, 2/0 (L,R) ch, ~192 kbps
General
Format : AVI
Format/Info : Audio Video Interleave
File size : 697 MiB
Duration : 48mn 42s
Overall bit rate : 2 002 Kbps
Writing application : VirtualDubMod 1.5.10.3 | www.virtualdub-fr.org || (build 2550/release)
Writing library : VirtualDubMod build 2550/release

Video
ID : 0
Format : MPEG-4 Visual
Format profile : Advanced Simple@L5
Format settings, BVOP : 2
Format settings, QPel : No
Format settings, GMC : No warppoints
Format settings, Matrix : Default (H.263)
Codec ID : XVID
Codec ID/Hint : XviD
Duration : 48mn 42s
Bit rate : 1 800 Kbps
Width : 720 pixels
Height : 400 pixels
Display aspect ratio : 16:9
Frame rate : 25.000 fps
Color space : YUV
Chroma subsampling : 4:2:0
Bit depth : 8 bits
Scan type : Progressive
Compression mode : Lossy
Bits/(Pixel*Frame) : 0.250
Stream size : 627 MiB (90%)
Writing library : XviD 1.2.1 (UTC 2008-12-04)

Audio
ID : 1
Format : AC-3
Format/Info : Audio Coding 3
Mode extension : CM (complete main)
Format settings, Endianness : Big
Codec ID : 2000
Duration : 48mn 42s
Bit rate mode : Constant
Bit rate : 192 Kbps
Channel count : 2 channels
Channel positions : Front: L R
Sampling rate : 48.0 KHz
Bit depth : 16 bits
Compression mode : Lossy
Stream size : 66.9 MiB (10%)
Alignment : Split accross interleaves
Interleave, duration : 40 ms (1.00 video frame)
Interleave, preload duration : 500 ms
01. Книга нашей жизни / The Book of Life
02. Поиски ключа / Unlocking the Code
info [Профиль]  [ЛС] 

MeSHmeN

Пол: Пол:Муж

Стаж: 2 года 11 месяцев

Сообщений: 54

Украина
Рейтинг

post 13-Апр-2014 21:28 (спустя 1 час 54 минуты) [-]1[+]

[Цитировать] 

Вроде очень интересно. Уже качаю, большое спасибо!
info [Профиль]  [ЛС] 
Показать сообщения:    
Ответить на тему

Текущее время: 10-Дек 13:01

Часовой пояс: GMT + 4



Вы не можете начинать темы
Вы не можете отвечать на сообщения
Вы не можете редактировать свои сообщения
Вы не можете удалять свои сообщения
Вы не можете голосовать в опросах
Вы не можете прикреплять файлы к сообщениям
Вы не можете скачивать файлы