Ошибка
Загрузка...

Не моя вина, что я не популярна! / Watamote / Watashi ga Motenai no wa Dou Kangaete mo Omaera ga Warui! [TV] [1-12 из 12] [2013] [комедия, повседневность] [BDRip] [720p] [Любительский (JAP+SUB)]

Ответить на тему
 
Автор Сообщение

Алмаз

Пол: Пол:Муж

Стаж: 7 лет

Сообщений: 1837

Россия
Рейтинг

post 30-Мар-2014 13:09 1[+]

[Цитировать] 


Год выпуска: 2013
Страна: Япония
Жанр: комедия, повседневность
Продолжительность: ТВ-сериал, 12 эп. по 24 мин.
Выпуск: c 09.07.2013 по 24.09.2013
Перевод:
  • русские субтитры от Nesitach & Asca & Stan WarHammer (полные/вспомогательные)

Режиссер: Онума Син
Студия: Silver Link
Описание:
Томоко Куроки пошла в старшую школу, полная надежд – теперь-то она точно научится общаться с людьми и станет популярной! Боги не наградили девушку лицом и фигурой модели, но ведь и уродливой ее не назовешь – так, серединка на половинку. Младший на год братишка, такой же геймер-полуночник, и спортом успешно занимается, и со сверстниками проблем не испытывает. А у главной героини налицо клинический случай неисправимого пессимизма. Еще не начав разговор, она тут же просчитывает ситуацию на пять ходов вперед до наихудшего исхода, мгновенно впадая в ступор. Так и вышло, что говорить спокойно Томоко может только с родными, а еще с единственной подругой по имени Ю – и все.
И зачем такая жизнь, когда не то что с понравившимся парнем – с соседкой по классу заговорить не получается? Как только несчастная Томо не пыталась бороться со своими комплексами! Хотела изменить себя – не выходит. Пыталась тренироваться с подругой и братом – никакого толку. С горя бросилась с головой в омут ночной жизни Харадзюку – там вообще чудом все обошлось. Вот и осталось бедной девушке погружаться в омут сладких иллюзий, созерцать хентайные сайты да бродить по игровым аркадам. Это в аниме найти друзей и стать звездой легко и просто, а в реальной жизни, похоже, Томоко обречена остаться живым примером для юных зрителей… и для не совсем юных тоже!
© Hollow, World Art

Информационные ссылки: AniDB || World Art || MAL
Качество: BDRip
Энкод: Winter - RG Pantheon
Тип видео: без хардсаба
Формат: mkv
Видео: x264 (Hi10p), 1280x720, ~3900 Kbps, 23.976 fps
Аудио JAP: Vorbis, 48000Hz, ~256 Kbps, 2ch
Аудио RUS 1: AC3, 48000Hz, ~192 Kbps, 2ch (внешними файлами)
Аудио RUS 2: AC3, 48000Hz, ~192 Kbps, 2ch (внешними файлами)
Аудио RUS 3: AC3, 48000Hz, ~192 Kbps, 2ch (внешними файлами)
  • двухголосая (муж./жен.) от NeaR & Lali (Anifilm)
  • двухголосая (муж./жен.) от BalFor & Shina (AniDub)
  • двухголосая (муж./жен.) от Kasperok69 & Ivaniska (WiaDub)
01. Since I`m Not Popular, I`ll Change My Image a Bit
02. Since I`m Not Popular, I`ll See My Old Friend
03. Since I`m Not Popular, the Weather`s Bad
04. Since I`m Not Popular, I`ll Have a Good Dream
05. Since I`m Not Popular, I`ll Boost My Skills
06. Since I`m Not Popular, I`ll Go See the Fireworks
07. Since I`m Not Popular, I`ll Enjoy My Summer Break
08. Since I`m Not Popular, I`ll Put On Airs
09. Since I`m Not Popular, Summer Is Ending
10. Since I`m Not Popular, the Second Term Is Starting
11. Since I`m Not Popular, I`ll Take Part in the Culture Festival
12. Since I`m Not Popular, I`ll Think About the Future

Код:

General
Unique ID                                : 240823736328140440111365962667968555928 (0xB52CF6EA37640874910F3AB30CADEB98)
Complete name                            : Z:\Watamote [BD] [720p]\[Winter] Watamote 01 [BDrip 1280x720 x264 Vorbis].mkv
Format                                   : Matroska
Format version                           : Version 2
File size                                : 749 MiB
Duration                                 : 23mn 52s
Overall bit rate mode                    : Variable
Overall bit rate                         : 4 388 Kbps
Encoded date                             : UTC 2013-10-20 08:54:06
Writing application                      : mkvmerge v2.9.8 ('C'est le bon') built on Aug 13 2009 12:49:06
Writing library                          : libebml v0.7.7 + libmatroska v0.8.1

Video
ID                                       : 1
Format                                   : AVC
Format/Info                              : Advanced Video Codec
Format profile                           : High 10@L4.1
Format settings, CABAC                   : Yes
Format settings, ReFrames                : 9 frames
Codec ID                                 : V_MPEG4/ISO/AVC
Duration                                 : 23mn 52s
Bit rate                                 : 4 045 Kbps
Width                                    : 1 280 pixels
Height                                   : 720 pixels
Display aspect ratio                     : 16:9
Frame rate mode                          : Constant
Frame rate                               : 23.976 fps
Color space                              : YUV
Chroma subsampling                       : 4:2:0
Bit depth                                : 10 bits
Scan type                                : Progressive
Bits/(Pixel*Frame)                       : 0.183
Stream size                              : 691 MiB (92%)
Writing library                          : x264 core 132 r2309 3b1f1f7
Encoding settings                        : cabac=1 / ref=9 / deblock=1:-2:-2 / analyse=0x3:0x133 / me=umh / subme=9 / psy=1 / psy_rd=0.90:0.00 / mixed_ref=1 / me_range=24 / chroma_me=1 / trellis=2 / 8x8dct=1 / cqm=0 / deadzone=21,11 / fast_pskip=1 / chroma_qp_offset=-2 / threads=6 / lookahead_threads=1 / sliced_threads=0 / nr=0 / decimate=0 / interlaced=0 / bluray_compat=0 / constrained_intra=0 / bframes=8 / b_pyramid=2 / b_adapt=2 / b_bias=0 / direct=1 / weightb=1 / open_gop=0 / weightp=2 / keyint=250 / keyint_min=23 / scenecut=40 / intra_refresh=0 / rc=crf / mbtree=0 / crf=15.7 / qcomp=0.70 / qpmin=9 / qpmax=40 / qpstep=4 / ip_ratio=1.40 / pb_ratio=1.30 / aq=1:0.90
Default                                  : No
Forced                                   : No

Audio
ID                                       : 2
Format                                   : Vorbis
Format settings, Floor                   : 1
Codec ID                                 : A_VORBIS
Duration                                 : 23mn 52s
Bit rate mode                            : Variable
Bit rate                                 : 256 Kbps
Channel count                            : 2 channels
Sampling rate                            : 48.0 KHz
Compression mode                         : Lossy
Stream size                              : 43.7 MiB (6%)
Writing library                          : libVorbis (Schaufenugget) (20101101 (Schaufenugget))
Language                                 : Japanese
Default                                  : Yes
Forced                                   : No
  • Данный релиз предназначен для просмотра на ПК. Воспроизведение на иных проигрывателях не гарантируется. Для просмотра рекомендуется Media Player Classic с установленным пакетом кодеков K-Lite.
  • Данный релиз содержит 10-битное видео (Hi10p). Для корректного воспроизведения обязательно используйте кодеки, поддерживающие 10-битное видео.
  • Данный релиз предназначен для просмотра с внешними субтитрами и внешними звуковыми дорожками.
    • Для просмотра с внешней звуковой дорожкой нужно:
      перекинуть файлы .mka из папки "RUS Sound [<автор(ы) озвучки>]" в одну папку с видео и переключить звуковую дорожку в плеере при просмотре. Как это сделать в разных плеерах подробно описано здесь.
    • Для просмотра с субтитрами нужно:
      перекинуть файлы .ass из папки "RUS Subtitles [<автор(ы) перевода>]" в одну папку с видео - плеер подгрузит их автоматически при открытии видео.
info [Профиль]  [ЛС] 
Показать сообщения:    
Ответить на тему

Текущее время: 20-Авг 12:09

Часовой пояс: GMT + 4



Вы не можете начинать темы
Вы не можете отвечать на сообщения
Вы не можете редактировать свои сообщения
Вы не можете удалять свои сообщения
Вы не можете голосовать в опросах
Вы не можете прикреплять файлы к сообщениям
Вы не можете скачивать файлы