Ошибка

Лекарь: Ученик Авиценны / The Physician (Филипп Штёльцль) [2013 г., драма, приключения, BDRemux 1080p]

Ответить на тему
 
Автор Сообщение

Basketballman

Пол: Пол:Муж

Стаж: 7 лет 1 месяц

Сообщений: 280

Россия
Рейтинг

post 30-Мар-2014 06:06 0[+]

[Цитировать] 

Лекарь: Ученик Авиценны / The Physician

Год выпуска: 2013
Страна: Германия
Жанр: драма, приключения
Продолжительность: 02:34:47
Перевод: профессиональный (полное дублирование) [лицензия]
Субтитры: нет
Режиссер:
  • Филипп Штёльцль
В ролях:
  • Том Пэйн, Бен Кингсли, Эмма Ригби, Стеллан Скарсгард, Оливье Мартинес, Элиас ЭмБарек, Майкл Джибсон, Стэнли Таунсенд, Майкл Маркус Морган, Адам Томас Райт

Описание: Англия, XI век. Мать десятилетнего Роба Коула умирает в страшных мучениях: никто не знает ни природы её болезни, ни лекарства против неё. Маленький Роб, потрясенный до глубины души, во что бы то ни стало стремится разгадать эту тайну.

Ему суждено пройти долгий путь, от Англии до Персии, его учителями становятся сначала обыкновенный шарлатан Барбер, а потом — великий лекарь Авиценна. Мудрый учитель видит в Робе необыкновенный талант к медицине, но советует ему не спешить делать вещи, которые не соответствуют веку. Но Роб ни перед чем не останавливается в своем желании научиться спасать людей от смерти, и над его собственной жизнью нависает угроза, ведь он дважды пошел против предрассудков: использовал для научных исследований тело человека и полюбил женщину, отданную в жены другому.


Качество: BDRemux 1080p
Формат: MKV
Видео кодек: MPEG-4
Аудио кодек: DTS, AC3
Видео: 1920x1080, 24.000 fps, 24.4 Mбит/с
Аудио 1: Russian: DTS, 6 ch, 755 Kbps
Аудио 2: Russian: AC3, 6 ch, 640 Kbps

Sample
General
Unique ID : 217033481567255055325337151643568468892 (0xA34720CBB7F6470A88CDD2CDFBAA739C)
Complete name : D:\Кино\The Physician BDRemux.mkv
Format : Matroska
Format version : Version 2
File size : 28.5 GiB
Duration : 2h 34mn
Overall bit rate mode : Variable
Overall bit rate : 26.3 Mbps
Movie name : The Physician (2013) / Lelya_K for NNM-Club
Encoded date : UTC 2014-03-28 20:30:07
Writing application : mkvmerge v5.7.0 ('The Whirlwind') built on Aug 7 2012 14:11:40
Writing library : libebml v1.2.3 + libmatroska v1.3.0
Attachment : Yes

Video
ID : 1
Format : AVC
Format/Info : Advanced Video Codec
Format profile : High@L4.1
Format settings, CABAC : Yes
Format settings, ReFrames : 4 frames
Format settings, GOP : M=3, N=24
Codec ID : V_MPEG4/ISO/AVC
Duration : 2h 34mn
Bit rate mode : Variable
Bit rate : 24.4 Mbps
Maximum bit rate : 33.0 Mbps
Width : 1 920 pixels
Height : 1 080 pixels
Display aspect ratio : 16:9
Frame rate mode : Constant
Frame rate : 24.000 fps
Standard : NTSC
Color space : YUV
Chroma subsampling : 4:2:0
Bit depth : 8 bits
Scan type : Progressive
Bits/(Pixel*Frame) : 0.490
Stream size : 26.4 GiB (93%)
Title : Лекарь.Ученик.Авиценны-The.Physician.(2013).BDRemux.[1080p]
Language : German
Default : Yes
Forced : No
Color primaries : BT.709
Transfer characteristics : BT.709
Matrix coefficients : BT.709

Audio #1
ID : 2
Format : DTS
Format/Info : Digital Theater Systems
Mode : 16
Format settings, Endianness : Big
Codec ID : A_DTS
Duration : 2h 34mn
Bit rate mode : Constant
Bit rate : 768 Kbps
Channel count : 6 channels
Channel positions : Front: L C R, Side: L R, LFE
Sampling rate : 48.0 KHz
Bit depth : 16 bits
Compression mode : Lossy
Stream size : 850 MiB (3%)
Title : DTS 5.1 / 768 kbps / Dub
Language : Russian
Default : Yes
Forced : No

Audio #2
ID : 3
Format : AC-3
Format/Info : Audio Coding 3
Mode extension : CM (complete main)
Format settings, Endianness : Big
Codec ID : A_AC3
Duration : 2h 34mn
Bit rate mode : Constant
Bit rate : 640 Kbps
Channel count : 6 channels
Channel positions : Front: L C R, Side: L R, LFE
Sampling rate : 48.0 KHz
Bit depth : 16 bits
Compression mode : Lossy
Stream size : 709 MiB (2%)
Title : AC3 5.1 / 640 kbps / Dub
Language : Russian
Default : No
Forced : No

Menu
00:00:00.000 : de:Chapter 1
00:00:04.000 : de:Chapter 2
00:18:33.416 : de:Chapter 3
00:38:54.750 : de:Chapter 4
00:56:59.083 : de:Chapter 5
01:21:29.916 : de:Chapter 6
01:39:45.916 : de:Chapter 7
02:05:39.000 : de:Chapter 8
02:20:17.708 : de:Chapter 9
info [Профиль]  [ЛС] 

AndreyTNT

Пол: Пол:Муж

Стаж: 7 лет 3 месяца

Сообщений: 19

Рейтинг

post 30-Мар-2014 12:59 (спустя 6 часов) [-]1[+]

[Цитировать] 

Дубляж лицензия или тунец раша? Подмигиваю
Update: Хороший фильм, и да, дубляж, всем качать. Спасибо.
info [Профиль]  [ЛС] 

Gvodz2

Пол: Пол:Муж

Стаж: 3 года 10 месяцев

Сообщений: 9

Россия
Рейтинг

post 31-Мар-2014 19:53 (спустя 1 день 6 часов) [-]3[+]

[Цитировать] 

Хороший фильм и интересный. Смотреть можно, кто еще не смотрел kolob_111
info [Профиль]  [ЛС] 

seregashar

Пол: Пол:Муж

Стаж: 6 лет 7 месяцев

Сообщений: 382

СССР
Рейтинг

post 17-Апр-2014 09:56 (спустя 16 дней) [-]2[+]

[Цитировать] 

фильм супер! anime_63

_________________
ДИНОЗАВР ASUS P5Q-e/проц q9550 2.8@3.5/видео ZOTAC GTX470amp1280mb/8gb ram/OC Win7 64bit/SSD Silicon Power V70/монитор 1680*1050/Chieftec APS-850C
info [Профиль]  [ЛС] 

post 07-Май-2014 17:06 (спустя 20 дней) [-]0[+]

Топик был перенесен из форума DVD, HD DVD, Blu-ray, HD Rips, Web-DL в форум Зарубежное кино | HD DVD и Blu-ray

BZzz
 
Показать сообщения:    
Ответить на тему

Текущее время: 06-Дек 21:55

Часовой пояс: GMT + 4



Вы не можете начинать темы
Вы не можете отвечать на сообщения
Вы не можете редактировать свои сообщения
Вы не можете удалять свои сообщения
Вы не можете голосовать в опросах
Вы не можете прикреплять файлы к сообщениям
Вы не можете скачивать файлы