Ошибка

Белка и Стрелка: Лунные приключения (Александр Храмцов, Инна Евланникова, Вадим Сотсков) [2013, мультфильм, комедия, приключения, семейный, HDRip]

Ответить на тему
 
Автор Сообщение

koss555

Пол: Пол:Муж

Стаж: 4 года 11 месяцев

Сообщений: 1549

Россия
Рейтинг

post 29-Мар-2014 12:53 1[+]

[Цитировать] 

Белка и Стрелка: Лунные приключения
«Полетели вместе!»

Год выпуска: 2013
Страна: Россия
Жанр: мультфильм, комедия, приключения, семейный
Продолжительность: 01:12:03
Перевод: Оригинальное [лицензия]

Режиссер: Александр Храмцов, Инна Евланникова, Вадим Сотсков
Сценарий: Сергей Москвич, Джон Чуа, Виктор Стрельченко
Продюсер: Сергей Зернов, Вадим Сотсков, Юлия Матяш
Композитор: Иван Урюпин
Художник: Александр Храмцов, Степан Грудинин
Монтаж: Андрей Базик

В ролях: Нонна Гришаева (Белка, озвучка), Марьяна Спивак (Стрелка, озвучка), Евгений Миронов (Веня, озвучка), Тимур Родригез (Банан, озвучка), Сергей Гармаш (Казбек, озвучка), Лев Аксельрод (Пушок, озвучка), Илья Храмцов (Пушок, озвучка), Стася Кудякова (Фифи, озвучка)


Описание: На Земле начали происходить странные и загадочные явления, несущие угрозу для планеты. Их след ведет в космос, на темную сторону Луны. Раскрыть тайну века поручили отряду Казбека. Белка, Стрелка и вся команда веселых и отважных героев отправляются на Луну, чтобы выполнить опасную миссию. Страсть к приключениям, искрометный юмор и великий дух космического братства поддержат в минуту великой опасности и помогут раскрыть всю правду о Луне и ее обитателях.
Сборы в мире: $5 730 973
Сборы в России: $5 932 537
Зрители: Россия 1.04 млн
Премьера (РФ): 6 февраля 2014, «Каропрокат» 3D
Релиз на DVD: 1 апреля 2014«CD Land»
Релиз на Blu-Ray: 1 апреля 2014 «CD Land»



Качество: HDRip
Формат: AVI
Видео кодек: XviD
Аудио кодеk: AC3
Видео: 720x400 (16:9), 25.000 fps, XviD, 2 259 Kbps
Аудио: Аудио #1: AC3, 448 Kbps, 48.0 KHz, 6 ch
General
Complete name : Belka.i.Strelka.2014.O.HDRip.1400MB.avi
Format : AVI
Format/Info : Audio Video Interleave
File size : 1.37 GiB
Duration : 1h 12mn
Overall bit rate : 2 716 Kbps
Writing application : VirtualDubMod 1.5.10.2 (build 2540/release)
Writing library : VirtualDubMod build 2540/release

Video
ID : 0
Format : MPEG-4 Visual
Format profile : Advanced Simple@L5
Format settings, BVOP : Yes
Format settings, QPel : No
Format settings, GMC : No warppoints
Format settings, Matrix : Custom
Codec ID : XVID
Codec ID/Hint : XviD
Duration : 1h 12mn
Bit rate : 2 259 Kbps
Width : 720 pixels
Height : 400 pixels
Display aspect ratio : 16:9
Frame rate : 25.000 fps
Color space : YUV
Chroma subsampling : 4:2:0
Bit depth : 8 bits
Scan type : Progressive
Bits/(Pixel*Frame) : 0.314
Stream size : 1.14 GiB (83%)
Writing library : XviD 1.2.1 (UTC 2008-12-04)

Audio
ID : 1
Format : AC-3
Format/Info : Audio Coding 3
Mode extension : CM (complete main)
Codec ID : 2000
Duration : 1h 12mn
Bit rate mode : Constant
Bit rate : 448 Kbps
Channel(s) : 6 channels
Channel positions : Front: L C R, Side: L R, LFE
Sampling rate : 48.0 KHz
Bit depth : 16 bits
Stream size : 231 MiB (16%)
Alignment : Split accross interleaves
Interleave, duration : 40 ms (1.00 video frame)
Interleave, preload duration : 500 ms
info [Профиль]  [ЛС] 

post 29-Мар-2014 12:54 (спустя 37 секунд) [-]0[+]

Топик был перенесен из форума Оформление раздач (Кинематограф) в форум Rips

koss555
 

post 06-Май-2014 18:06 (спустя 1 месяц 8 дней) [-]0[+]

Топик был перенесен из форума Rips в форум Отечественные полнометражные мультфильмы

koss555
 

Dr_Solo

Пол: Пол:Муж

Стаж: 3 года 7 месяцев

Сообщений: 17

Россия
Рейтинг

post 31-Окт-2014 13:48 (спустя 7 месяцев 2 дня) [-]0[+]

[Цитировать] 

детям понравился, спасибо
info [Профиль]  [ЛС] 
Показать сообщения:    
Ответить на тему

Текущее время: 09-Дек 21:29

Часовой пояс: GMT + 4



Вы не можете начинать темы
Вы не можете отвечать на сообщения
Вы не можете редактировать свои сообщения
Вы не можете удалять свои сообщения
Вы не можете голосовать в опросах
Вы не можете прикреплять файлы к сообщениям
Вы не можете скачивать файлы