Ошибка

Необъятные небеса | IS: Infinite Stratos [TV1][1-12 из 12][2011][комедия, фантастика, меха, этти][BDRip][720p][Любительский(JAP+SUB)]

Ответить на тему
 
Автор Сообщение

precentor frost

Пол: Пол:Муж

Стаж: 7 лет 8 месяцев

Сообщений: 669

Рейтинг

post 28-Мар-2014 16:42 1[+]

[Цитировать] 



Необъятные небеса || IS: Infinite Stratos || IS 〈インフィニット・ストラトス〉


Страна:
Год выпуска: 2011 [07.01.2011 ~ 01.04.2011]
Жанр: комедия, фантастика, меха, этти
Продолжительность: TV 12 эп. по 24 мин.

Перевод: озвучка || субтитры

Режиссёр: Кикути Ясухито
Автор оригинала: Юмидзуру Идзуру
Студия:

В ближайшем будущем в Японии (где же еще?) изобрели чудесный боевой костюм, оператор которого получал огромную силу, скорость, могучую защиту и целый арсенал встроенного оружия. Человек становился подобен универсальному истребителю, потому костюм получил название «Небесный Доспех», сокращенно НД. Если учесть, что пилот мог активировать костюм силой мысли, а талантов хватало в каждой стране, то станет ясно, почему войны прекратились, а НД занял нишу «оружия сдерживания». Теперь работы по его развитию велись под благовидным предлогом «мирного применения», к примеру, в спортивных состязаниях, где участвовали представители всех наций. Точнее, представительницы, поскольку активировать Доспех могли только женщины!
В обществе, целиком зависящем от чудо-техники, снова воцарился матриархат. Но спустя десяток лет с открытия Доспеха мир потрясла новая сенсация – нашелся первый мужчина, способный стать его пилотом! И вот Итика Оримура, 15-летний герой поневоле, стараниями японского правительства поступил в Небесную академию, где учатся самые талантливые пилоты со всего мира. Теперь Итике, единственному парню среди сильных и агрессивных красавиц, нужно постоять за честь безвинно пострадавшего «слабого пола», разобраться с подругами детства, укрепить э-э… международные связи, а еще ведь и учиться когда-то надо!


© Hollow World Art


Информационные ссылки: AniDB || World Art || MAL

Качество: BDRip
Энкод: =^_^=
Тип видео: без хардсаба
Формат: mkv

Видео: x264 (Hi10p), 1280x720 (16:9), ~2400 Kbps, 23.976 fps
Аудио JAP: Vorbis, 48kHz, ~320 Kbps, 2ch

Аудио RUS #1: Vorbis, 48kHz, ~256 Kbps, 2ch || AniDUB (ext)
одноголосая (муж.) от Zack_Fair
Аудио RUS #2: AAC, 48kHz, ~160 Kbps, 2ch || Anything-group (ext)
одноголосая (муж.) от sad_kit
Аудио RUS #3: AC3, 48kHz, ~192 Kbps, 2ch || WiaDub (ext)
одноголосая (муж.) от Стасяныч
Аудио RUS #4: AC3, 48kHz, ~192 Kbps, 2ch || (ext)
одноголосая (муж.) от Kaind
Аудио RUS #5: AC3, 48kHz, ~192-384 Kbps, 2ch || Animedia (ext)
двухголосая (жен./муж.) от Eladiel & Lupin
Аудио RUS #6: AC3, 48kHz, ~192 Kbps, 2ch || Opendub & SeM (ext)
двухголосая (муж./жен.) от Flame & KroshkaRu

Субтитры RUS #1: ASS, полные/вспомогательные || Obelikx & Hollow (ext)
перевод/оформление: Obelikx, лирика/редартура: Hollow
Субтитры RUS #2: ASS, полные || Fratelli & Dreamers Team (ext)
перевод: Jenia aka Zub, лирика: AlenFuns, редактура: Yuliii, оформление: Inhesion


01. Classmates Are All Girls
02. Class Representative Selection Match!
03. The Transfer Student is a Second Childhood Friend
04. Decisive Battle! The Class League Match
05. Boy Meets Boy
06. My Roommate is a Blond Gentleman
07. Blue Days / Red Switch
08. Find Out My Mind
09. Ocean`s Eleven!
10. Thin Red Line
11. Get Ready
12. Your Name Is

Код:

Complete name                            : ..\[=^_^=] IS ep.01 [BD720 x264 Vorbis].mkv
Format                                   : Matroska
Format version                           : Version 4 / Version 2
File size                                : 483 MiB
Duration                                 : 24mn 11s
Overall bit rate mode                    : Variable
Overall bit rate                         : 2 791 Kbps
Encoded date                             : UTC 2014-01-28 11:36:14
Writing application                      : mkvmerge v6.5.0 ('Isn't she lovely') built on Oct 20 2013 12:50:05
Writing library                          : libebml v1.3.0 + libmatroska v1.4.1

Video
ID                                       : 1
Format                                   : AVC
Format/Info                              : Advanced Video Codec
Format profile                           : High 10@L5.0
Format settings, CABAC                   : Yes
Format settings, ReFrames                : 8 frames
Codec ID                                 : V_MPEG4/ISO/AVC
Duration                                 : 24mn 11s
Bit rate                                 : 2 416 Kbps
Width                                    : 1 280 pixels
Height                                   : 720 pixels
Display aspect ratio                     : 16:9
Frame rate mode                          : Constant
Frame rate                               : 23.976 fps
Color space                              : YUV
Chroma subsampling                       : 4:2:0
Bit depth                                : 10 bits
Scan type                                : Progressive
Bits/(Pixel*Frame)                       : 0.109
Stream size                              : 418 MiB (87%)
Title                                    : IS: Infinite Stratos ep.01 «All My Classmates Are Female»
Writing library                          : x264 core 140 r2377 1ca7bb9
Encoding settings                        : cabac=1 / ref=8 / deblock=1:-3:-3 / analyse=0x3:0x113 / me=umh / subme=9 / psy=1 / psy_rd=0.90:0.00 / mixed_ref=1 / me_range=32 / chroma_me=1 / trellis=2 / 8x8dct=1 / cqm=0 / deadzone=21,11 / fast_pskip=0 / chroma_qp_offset=-2 / threads=9 / lookahead_threads=2 / sliced_threads=0 / nr=0 / decimate=0 / interlaced=0 / bluray_compat=0 / constrained_intra=0 / bframes=12 / b_pyramid=2 / b_adapt=2 / b_bias=0 / direct=1 / weightb=1 / open_gop=0 / weightp=2 / keyint=240 / keyint_min=24 / scenecut=40 / intra_refresh=0 / rc=crf / mbtree=0 / crf=16.0 / qcomp=0.72 / qpmin=0 / qpmax=81 / qpstep=4 / ip_ratio=1.40 / pb_ratio=1.30 / aq=1:0.85
Default                                  : Yes
Forced                                   : No
Color primaries                          : BT.709
Transfer characteristics                 : BT.709
Matrix coefficients                      : BT.709

Audio
ID                                       : 2
Format                                   : Vorbis
Format settings, Floor                   : 1
Codec ID                                 : A_VORBIS
Duration                                 : 24mn 11s
Bit rate mode                            : Variable
Bit rate                                 : 320 Kbps
Channel(s)                               : 2 channels
Sampling rate                            : 48.0 KHz
Compression mode                         : Lossy
Stream size                              : 55.4 MiB (11%)
Writing library                          : libVorbis (Schaufenugget) (20101101 (Schaufenugget))
Language                                 : Japanese
Default                                  : Yes
Forced                                   : No
info [Профиль]  [ЛС] 
Показать сообщения:    
Ответить на тему

Текущее время: 03-Дек 04:23

Часовой пояс: GMT + 4



Вы не можете начинать темы
Вы не можете отвечать на сообщения
Вы не можете редактировать свои сообщения
Вы не можете удалять свои сообщения
Вы не можете голосовать в опросах
Вы не можете прикреплять файлы к сообщениям
Вы не можете скачивать файлы