Ошибка

До окончания фрилича осталось:


Тарзан / Tarzan (Райнхард Клоосс) [2013, мультфильм, семейный, приключения, HDRip]

Ответить на тему
 
Автор Сообщение

BZzz

Пол: Пол:Муж

Стаж: 5 лет 1 месяц

Сообщений: 3647

Россия
Рейтинг

post 20-Мар-2014 17:49 0[+]

[Цитировать] 

Тарзан / Tarzan
«Стань свидетелем возрождения легенды»




Год выпуска: 2013
Страна: Германия
Жанр: мультфильм, семейный, приключения
Продолжительность: 01:34:50
Перевод: Профессиональный (дублированный)[лицензия]

Режиссер: Райнхард Клоосс

В ролях: Келлан Латс (Kellan Lutz), Спенсер Лок (Spencer Locke), Тревор Ст. Джон (Trevor St. John), Лес Бабб (Les Bubb), Брайан Блум (Brian Bloom), Брайан Хаски (Brian Huskey), Роберт Капрон (Robert Capron), Джейми Рэй Ньюман (Jaime Ray Newman)

Описание: Во время крушения американского воздушного лайнера в джунглях погибли все пассажиры, выжил лишь один младенец. Он стал приемышем в стае диких обезьян, которые выкормили, вырастили его, научили выживать в этом жестком мире естественного отбора… Пришло время, и теперь мощный и ловкий, он должен защитить свой мир от врагов. Но главное — он должен снова стать человеком.

Сборы в мире: $26 245 725
Сборы в России: $5 641 950



Качество: HDRip
Формат: AVI
Видео кодек: XviD
Аудио кодек: AC3
Видео: 720x304 (2.35:1), 23.976 fps, XviD, 1 621 Kbps
Аудио #1: AC3, 446 Kbps, 48.0 KHz, 6 ch
...
> Всего работа над фильмом длилась три года. Съемки проходили в четыре этапа: сначала были созданы раскадровки с 5000 иллюстрациями, потом был сделан полуреальный фильм с использованием технологии «захвата движения» актеров и каскадеров. Потом начался процесс монтажа, который длился целый год, когда записанные данные превращались в 3D-персонажей. И только после этого начался процесс самой анимации, которая заняла еще один год. Над фильмом работали 350 человек.

...
> Для съемок фильма была использована технология motion capture («захват движения»), в которой снимались все сцены на планете «Пандора» в фильме «Аватар» (2009). Во время съемок актеры носили специальные костюмы, плотно облегающие тело, которые покрыты 68-ю крохотными сенсорами, информация с которых считывалась и обрабатывалась 60-ю инфракрасными камерами.

...
> Первая книга о приключениях Тарзана вышла в 1914 году. Всего о короле джунглей Эдгар Райс Берроуз написал около 20 романов.

...
> Первый фильм о Тарзане появился в 1918 году. С тех пор по мотивам книги было снято около 100 кино- и телефильмов. Роман о Тарзане наряду с историей графа Дракулы стал одной из самых экранизируемых произведений в мировой литературе.

...
> Тарзана в разных возрастах сыграли четыре разных актера.
Формат : AVI
Формат/Информация : Audio Video Interleave
Размер файла : 1,37 Гбайт
Продолжительность : 1 ч. 34 м.
Общий поток : 2078 Кбит/сек
Программа кодирования : VirtualDubMod 1.5.10.2 (build 2540/release)
Библиотека кодирования : VirtualDubMod build 2540/release

Видео
Идентификатор : 0
Формат : MPEG-4 Visual
Профиль формата : Advanced Simple@L5
Параметр BVOP формата : 2
Параметр QPel формата : Нет
Параметр GMC формата : Без точки перехода
Параметр матрицы формата : Выборочная
Идентификатор кодека : XVID
Идентификатор кодека/Подсказка : XviD
Продолжительность : 1 ч. 34 м.
Битрейт : 1621 Кбит/сек
Ширина : 720 пикселей
Высота : 304 пикселя
Соотношение сторон : 2,35:1
Частота кадров : 23,976 кадра/сек
Цветовое пространство : YUV
Субдискретизация насыщенности : 4:2:0
Битовая глубина : 8 бит
Тип развёртки : Прогрессивная
Метод сжатия : С потерями
Бит/(Пиксели*Кадры) : 0.309
Размер потока : 1,07 Гбайт (78%)
Библиотека кодирования : XviD 1.2.1 (UTC 2008-12-04)

Аудио
Идентификатор : 1
Формат : AC-3
Формат/Информация : Audio Coding 3
Расширение режима : CM (complete main)
Параметр Endianness формата : Big
Идентификатор кодека : 2000
Продолжительность : 1 ч. 34 м.
Вид битрейта : Постоянный
Битрейт : 448 Кбит/сек
Каналы : 6 каналов
Расположение каналов : Front: L C R, Side: L R, LFE
Частота : 48,0 КГц
Битовая глубина : 16 бит
Метод сжатия : С потерями
Размер потока : 302 Мбайт (22%)
Выравнивание : Разделение по промежуткам
Продолжительность промежутка : 42 мс. (1,00 видеокадр)
Время предзагрузки промежутка : 500 мс.
info [Профиль]  [ЛС] 

Skay

Пол: Пол:Муж

Стаж: 5 лет 4 месяца

Сообщений: 310

Рейтинг

post 20-Мар-2014 19:04 (спустя 1 час 15 минут) [-]0[+]

[Цитировать] 

[offtop mode=on]

Цитата:

>Первая книга о приключениях Тарзана вышла в 1914 году. Всего о короле джунглей Эдгар Райс Берроуз написал около 20 романов.
прочтения достояна только первая, дальше уже совсем не торт
[offtop mode=off]

_________________
info [Профиль]  [ЛС] 

aaronrain

Пол: Пол:Муж

Стаж: 6 лет 8 месяцев

Сообщений: 26

Россия
Рейтинг

post 20-Мар-2014 20:32 (спустя 1 час 28 минут) [-]3[+]

[Цитировать] 

Зато у Берроуза отличная серия книг про марсианина Картера. Релизеру спс за раздачу, посмотрим семьей.
info [Профиль]  [ЛС] 

alphawerewolf

Пол: Пол:Муж

Стаж: 5 лет

Сообщений: 116

Россия
Рейтинг

post 20-Мар-2014 20:54 (спустя 22 минуты) [-]0[+]

[Цитировать] 

спасибо, заценим Улыбаюсь

_________________
info [Профиль]  [ЛС] 

AlexandrEvil

Пол: Пол:Муж

Стаж: 5 лет 5 месяцев

Сообщений: 62

СССР
Рейтинг

post 20-Мар-2014 22:53 (спустя 1 час 59 минут) [-]0[+]

[Цитировать] 

Движения как в симсе)))
Особенно прикололо как он расчесал волосы, вот у меня бы так утром и зубу еще почистить тоже двумя движениями kolob_143

_________________
(\(\
(=")
(")(")
info [Профиль]  [ЛС] 

WISTIK1988

Пол: Пол:Муж

Стаж: 6 лет 2 месяца

Сообщений: 148

СССР
Рейтинг

post 21-Мар-2014 08:25 (спустя 9 часов) [-]0[+]

[Цитировать] 

Торрент файл называется Trazan )

_________________


Искусство секса - это умение поцеловать даму в нужное время в нужном месте.
info [Профиль]  [ЛС] 

BZzz

Пол: Пол:Муж

Стаж: 5 лет 1 месяц

Сообщений: 3647

Россия
Рейтинг

post 22-Апр-2014 00:06 (спустя 1 месяц) [-]1[+]

[Цитировать] 

 !  BZzz:
...лицензия
info [Профиль]  [ЛС] 

TeV

Пол: Пол:Муж

Стаж: 3 года 7 месяцев

Сообщений: 1

Россия
Рейтинг

post 22-Апр-2014 14:30 (спустя 14 часов) [-]0[+]

[Цитировать] 

Боже, зачем же так издеваться. Хрень на мой взгляд.
info [Профиль]  [ЛС] 

SonicPaul

Пол: Пол:Муж

Стаж: 6 лет 9 месяцев

Сообщений: 165

Япония
Рейтинг

post 22-Апр-2014 19:28 (спустя 4 часа) [-]2[+]

[Цитировать] 

Тарзан на Фростбайте чтоль ? Что то текстурки пресонажей похожи Улыбаюсь
info [Профиль]  [ЛС] 

Shredinger

Пол: Пол:Муж

Стаж: 6 лет 9 месяцев

Сообщений: 2185

Предупреждений: 2

Россия
Рейтинг

post 23-Апр-2014 03:22 (спустя 7 часов) [-]0[+]

[Цитировать] 

Очень слабо, даже для мульта.

_________________
Единение через разнообразие.
info [Профиль]  [ЛС] 

a1kaida

Пол: Пол:Муж

Стаж: 5 лет 5 месяцев

Сообщений: 221

Россия
Рейтинг

post 23-Апр-2014 06:14 (спустя 2 часа 52 минуты) [-]1[+]

[Цитировать] 

чушь несусветная , жаль потраченного времени... еще больше жаль людей , которые платили за это...
info [Профиль]  [ЛС] 

peveks

Стаж: 6 лет 8 месяцев

Сообщений: 11

Украина
Рейтинг

post 16-Май-2014 17:44 (спустя 23 дня) [-]0[+]

[Цитировать] 

Выдержал 20 мин и выключил
info [Профиль]  [ЛС] 

post 17-Май-2014 18:23 (спустя 1 день) [-]0[+]

Топик был перенесен из форума Rips в форум Зарубежные полнометражные мультфильмы

L
 
Показать сообщения:    
Ответить на тему

Текущее время: 10-Дек 20:43

Часовой пояс: GMT + 4



Вы не можете начинать темы
Вы не можете отвечать на сообщения
Вы не можете редактировать свои сообщения
Вы не можете удалять свои сообщения
Вы не можете голосовать в опросах
Вы не можете прикреплять файлы к сообщениям
Вы не можете скачивать файлы