Ошибка

Круши Кромсай | Kill la Kill [TV] [01-24 из 24] [2013] [приключения, школа] [WEB-DLRip] [720p] [Любительский]

Ответить на тему
 
Автор Сообщение

LyaKich

Пол: Пол:Муж

Стаж: 6 лет 3 месяца

Сообщений: 6303

Россия
Рейтинг

post 14-Мар-2014 23:46 1[+]

[Цитировать] 

pic="http://s020.radikal.ru/i706/1403/b5/4ffc17baae26.jpg"
Круши Кромсай
Kill la Kill | キルラキル

Год выпуска: 2013
Страна: Япония
Жанр: приключения, школа
Тип: ТВ
Продолжительность: 24 мин./серия
Студия: Trigger
Режиссер: Имайси Хироюки
Озвучено:
  1. Трина Дубовицкая & Cuba77 - двухголосый войсовер
    • RUS, AAC, 2ch, 192 Кбит/сек

Информация о видео:
Тип носителя: WEB-DLRip | Формат: AVC
Видео: 264 (8bit), 1280x720 (16:9), 23,976 fps, 2690 kbps
Описание:
Академия Хоннодзи - обычная такая школа, только с углубленным изучением мордобоя. Ученикам здесь приходится не только книжки читать, да уравнения решать, а еще и учиться крушить все вокруг и кромсать всех кто под руку подвернется! Глава студсовета академии жутко стервозная госпожа Сацки лично дарует форму Гоку, во сто крат увеличивающую физические возможности хозяина, лишь тем кто по ее мнению наиболее достоин. Человек в форме Гоку фактически непобедим перед лицом простых смертных хомячков. А вот у новенькой переведённой ученицы, Матой Рюко, есть половина громадных таких ножниц, заточенных как раз кромсать этот крутопонтовый шмот. Ей не хватает лишь соответствующей одёжки, которую она таки найдет!

Код:

Общее
Полное имя                               : D:\[AniDub]_Kill_la_Kill_[720p]\[AniDub]_Kill_la_Kill_[01]_[720p]_[TrinaD_Cuba77].mp4
Формат                                   : MPEG-4
Профиль формата                          : Base Media
Идентификатор кодека                     : isom
Размер файла                             : 505 Мбайт
Продолжительность                        : 24 м.
Режим общего битрейта                    : Переменный
Общий поток                              : 2886 Кбит/сек
Дата кодирования                         : UTC 2013-10-03 18:15:24
Дата пометки                             : UTC 2013-10-03 18:15:24
Программа кодирования                    : Yamb 2.1.0.0 [http://yamb.unite-video.com]

Видео
Идентификатор                            : 1
Формат                                   : AVC
Формат/Информация                        : Advanced Video Codec
Профиль формата                          : High@L4.1
Параметр CABAC формата                   : Да
Параметр ReFrames формата                : 4 кадра
Идентификатор кодека                     : avc1
Идентификатор кодека/Информация          : Advanced Video Coding
Продолжительность                        : 24 м.
Битрейт                                  : 2690 Кбит/сек
Максимальный битрейт                     : 21,1 Мбит/сек
Ширина                                   : 1280 пикселей
Высота                                   : 720 пикселей
Соотношение сторон                       : 16:9
Режим частоты кадров                     : Постоянный
Частота кадров                           : 23,976 кадра/сек
Цветовое пространство                    : YUV
Субдискретизация насыщенности            : 4:2:0
Битовая глубина                          : 8 бит
Тип развёртки                            : Прогрессивная
Бит/(Пиксели*Кадры)                      : 0.122
Размер потока                            : 470 Мбайт (93%)
Библиотека кодирования                   : x264 core 138 r2358 9e941d1
Настройки программы                      : cabac=1 / ref=4 / deblock=1:1:1 / analyse=0x3:0x113 / me=hex / subme=7 / psy=1 / psy_rd=0.40:0.00 / mixed_ref=1 / me_range=16 / chroma_me=1 / trellis=1 / 8x8dct=1 / cqm=0 / deadzone=21,11 / fast_pskip=1 / chroma_qp_offset=-2 / threads=12 / lookahead_threads=2 / sliced_threads=0 / nr=0 / decimate=1 / interlaced=0 / bluray_compat=0 / constrained_intra=0 / bframes=5 / b_pyramid=2 / b_adapt=1 / b_bias=0 / direct=1 / weightb=1 / open_gop=0 / weightp=2 / keyint=240 / keyint_min=23 / scenecut=40 / intra_refresh=0 / rc_lookahead=40 / rc=crf / mbtree=1 / crf=20.0 / qcomp=0.60 / qpmin=0 / qpmax=69 / qpstep=4 / ip_ratio=1.40 / aq=1:0.50
Дата кодирования                         : UTC 2013-10-03 18:27:29
Дата пометки                             : UTC 2013-10-03 18:15:37
Основные цвета                           : BT.709
Характеристики трансфера                 : BT.709
Коэффициенты матрицы                     : BT.709

Аудио
Идентификатор                            : 2
Формат                                   : AAC
Формат/Информация                        : Advanced Audio Codec
Профиль формата                          : LC
Идентификатор кодека                     : 40
Продолжительность                        : 24 м.
Вид битрейта                             : Переменный
Битрейт                                  : 192 Кбит/сек
Максимальный битрейт                     : 196 Кбит/сек
Каналы                                   : 2 канала
Расположение каналов                     : Front: L R
Частота                                  : 48,0 КГц
Метод сжатия                             : С потерями
Размер потока                            : 33,6 Мбайт (7%)
Язык                                     : English
Дата кодирования                         : UTC 2013-10-03 18:15:37
Дата пометки                             : UTC 2013-10-03 18:15:37
1. If Only I Had Thorns Like a Thistle...
2. So Sexy She Might Pass Out
3. Junketsu
4. Dawn of a Miserable Morning
5. Hikigane (Trigger)
6. Don`t Toy Me on a Whim
7. A Loser I Can`t Hate
8. I`ll Wipe My Own Tears
9. A Once in a Lifetime Chance
10. I Want to Know More About You
11. I`m Not Your Cute Woman
12. Spit Your Sadness Away
13. Crazy for You
14. Ride Like the Wind
15. Don`t Stop Me Now
16. The Girl Can`t Help It
17. Tell Me Why
18. Into the Night
19. Raindrops Keep Falling on My Head
20. Far from the Madding Crowd
21. Incomplete
22. Tell Me How You Feel
23. Imitation Gold
24. Past the Infinite Darkness
31.03.2014 Раздача обновлена
Добавлена 24-я серия
info [Профиль]  [ЛС] 

Witcher

Пол: Пол:Муж

Стаж: 7 лет 8 месяцев

Сообщений: 6196

Рейтинг

post 14-Мар-2014 23:47 (спустя 1 минута) [-]2[+]

[Цитировать] 

Возьмусь, в скором времени, за BD

_________________
Темы не проверяю, для этого есть модераторы.
info [Профиль]  [ЛС] 

Gkorzik

Пол: Пол:Муж

Стаж: 4 года 3 месяца

Сообщений: 7

Ямайка
Рейтинг

post 15-Мар-2014 00:03 (спустя 15 минут) [-]-3[+]

[Цитировать] 

Наконец в переводе кубы.Спасибо
info [Профиль]  [ЛС] 

TATOSHCA

Пол: Пол:Муж

Стаж: 7 лет 8 месяцев

Сообщений: 3941

Россия
Рейтинг

post 20-Мар-2014 17:35 (спустя 5 дней) [-]-1[+]

[Цитировать] 

Добавьте отчет MediaInfo.

_________________
info [Профиль]  [ЛС] 

Kolyabus

Пол: Пол:Муж

Стаж: 7 лет 2 месяца

Сообщений: 93

Россия
Рейтинг

post 22-Мар-2014 12:24 (спустя 1 день 18 часов) [-]1[+]

[Цитировать] 

Зачотное анимэ! Хоть и немного мозговыносящее, но зато оригинальное и чем-то цепляющее. За раз 14 серий проглотил kolob_109
info [Профиль]  [ЛС] 

KorSar

Пол: Пол:Муж

Стаж: 7 лет 3 месяца

Сообщений: 85

Россия
Рейтинг

post 26-Мар-2014 18:52 (спустя 4 дня) [-]1[+]

[Цитировать] 

эпичное аниме, в духе гуррен лаганна, собственно гайнакс!
info [Профиль]  [ЛС] 

Pharaon

Пол: Пол:Муж

Стаж: 7 лет 6 месяцев

Сообщений: 5844

Рейтинг

post 26-Мар-2014 19:02 (спустя 9 минут) [-]1[+]

[Цитировать] 

[Любительский(RUS)]
(RUS) - думаю тут это лишнее.
info [Профиль]  [ЛС] 

maxzer

Стаж: 7 лет 2 месяца

Сообщений: 1073

Рейтинг

post 26-Мар-2014 21:24 (спустя 2 часа 22 минуты) [-]-2[+]

[Цитировать] 

лол что куба еще живой?)
info [Профиль]  [ЛС] 

leSang

Пол: Пол:Муж

Стаж: 7 лет 8 месяцев

Сообщений: 923

Япония
Рейтинг

post 07-Апр-2014 12:06 (спустя 11 дней) [-]5[+]

[Цитировать] 

без японского? что за фигня!

_________________
info [Профиль]  [ЛС] 

luc1kJke

Пол: Пол:Муж

Стаж: 6 лет 9 месяцев

Сообщений: 167

Россия
Рейтинг

post 07-Апр-2014 23:19 (спустя 11 часов) [-]-3[+]

[Цитировать] 

скачал серию а там cuba777 и отсутствие японской дорожки anime_8

_________________
info [Профиль]  [ЛС] 

DeusNeko

Пол: Пол:Муж

Стаж: 7 лет 1 месяц

Сообщений: 1381

Предупреждений: 1

Россия
Рейтинг

post 08-Апр-2014 00:09 (спустя 49 минут) [-]2[+]

[Цитировать] 

Нет оригинальной дороги? Просто возмутительно. Раздача зашкварена.
Автора в темницу.

_________________
Matrix Mini-I Pro -> Questyle CMA800R -> Sennheiser HD 280/PSB M4U 1/Beyerdynamic DT 770 Pro/Beyerdynamic T90/HiFiMAN HE-400
info [Профиль]  [ЛС] 

precentor frost

Пол: Пол:Муж

Стаж: 7 лет 8 месяцев

Сообщений: 669

Рейтинг

post 08-Апр-2014 12:09 (спустя 12 часов) [-]2[+]

[Цитировать] 

luc1kJke писал(а):

скачал серию а там cuba777 и отсутствие японской дорожки
а читать вы не обучены?

_________________
Cилы добра, света и справедливости - это три совершенно разные фракции.
info [Профиль]  [ЛС] 

luc1kJke

Пол: Пол:Муж

Стаж: 6 лет 9 месяцев

Сообщений: 167

Россия
Рейтинг

post 08-Апр-2014 18:26 (спустя 6 часов) [-]0[+]

[Цитировать] 

precentor frost писал(а):

luc1kJke писал(а):

скачал серию а там cuba777 и отсутствие японской дорожки
а читать вы не обучены?
Присутствие японской дорожки всегда было чем-то самим-собой разумеющимся. Замена многоголосной профессиональной озвучки на "двухголосый войсовер" это просто деградация.

_________________
info [Профиль]  [ЛС] 

Ritsu

Пол: Пол:Муж

Стаж: 5 лет 5 месяцев

Сообщений: 856

Австралия
Рейтинг

post 06-Сен-2014 21:18 (спустя 4 месяца 28 дней) [-]0[+]

[Цитировать] 

25-ю серию с сабами бы..

_________________
Флудите вместе с Рицу и будет вам счастье! ^__^

"...Зажжем рок в этой дыре!.."
info [Профиль]  [ЛС] 
Показать сообщения:    
Ответить на тему

Текущее время: 04-Дек 10:09

Часовой пояс: GMT + 4



Вы не можете начинать темы
Вы не можете отвечать на сообщения
Вы не можете редактировать свои сообщения
Вы не можете удалять свои сообщения
Вы не можете голосовать в опросах
Вы не можете прикреплять файлы к сообщениям
Вы не можете скачивать файлы